百度云电影论坛

 找回密码
 立即注册

过关斩将/威龙猛将 The.Running.Man.1987.REMASTERED.1080p.BluRay.x264-PEGASUS 12.7 ...

[复制链接]

admin 发表于 2021-12-4 17:22:48 | 显示全部楼层 |阅读模式
过关斩将/威龙猛将 The.Running.Man.1987.REMASTERED.1080p.BluRay.x264-PEGASUS 12.74GB                                                                                                                                                                              -->
帖子完整标题:过关斩将/威龙猛将 The.Running.Man.1987.REMASTERED.1080p.BluRay.x264-PEGASUS 12.74GB





◎译  名 过关斩将/威龙猛将/跑步者/逃跑的人/魔鬼阿诺
◎片  名 The Running Man
◎年  代 1987
◎产  地 美国
◎类  别 动作 / 科幻 / 惊悚
◎语  言 英语
◎上映日期 1987-11-13
◎豆瓣评分 6.8/10 from 5058 users
◎ 
◎片  长 101 分钟
◎导  演 保罗·迈克尔·格拉泽 Paul Michael Glaser
◎编  剧 斯蒂芬·金 Stephen King / 斯蒂芬·E.德·索萨 Steven E. de Souza
◎主  演 阿诺·施瓦辛格 Arnold Schwarzenegger
     玛利亚·康柯塔·阿隆索 Maria Conchita Alonso
     杰西·温图拉 Jesse Ventura
     Anthony Pena Anthony Pena
     爱德华·邦克 Edward Bunker
     史文-欧尔·托尔森 Sven-Ole Thorsen
     戴·扬 Dey Young
     罗德格尔·邦帕斯 Rodger Bumpass
     琳恩·玛丽·斯图尔特 Lynne Marie Stewart
     小托马斯·罗萨莱斯 Thomas Rosales Jr.
     罗杰·科恩 Roger Kern
     弗兰科·哥伦布 Franco Columbu
     博伊德·肯斯特纳 Boyd Kestner
     梅利莎·赫利 Melissa Hurley
     卡德罗莎·奥娜·卡罗尔
     理查德·道森 Richard Dawson
     米克·弗利特伍德 Mick Fleetwood
     Billy D. Lucas Billy D. Lucas
     林·沙烨 Lin Shaye
     乔治·P·威尔伯 George P. Wilbur
     柯特·富勒 Kurt Fuller
     吉姆·布朗 Jim Brown
     Dweezil Zappa Dweezil Zappa
     亚非特·科托 Yaphet Kotto
     Erland van Lidth Erland van Lidth
     田中通教授 Professor Toru Tanaka
     Karen Leigh Hopkins Karen Leigh Hopkins

◎标  签 动作 | 美国 | 科幻 | 施瓦辛格 | 暴力 | 1987 | 阿诺德·施瓦辛格 | 美国电影

◎简  介

  该片延续了施瓦辛格一贯的英雄风格。在2019年,美国已经成为了一个独裁国家,在这里,不容许有不同的声音出现。本(阿诺?施瓦辛格 Arnold Schwarzenegger 饰)是一名警察,因对当局的命令不满,拒不执行命令而被判有罪遭到逮捕。
  
  现在只有一个机会能让本重获自由,那就是参加电视台的“过关斩将”节目并最终获胜。这个节目肆意歪曲事实,误导观众,节目里的有识之士被扭曲形象,遭到杀害。本千辛万苦从电视台逃出来后,联合了一班正义之士,准备杀回电视台拆穿这个节目的骗局!
Video
ID             : 1
Format           : AVC
Format/Info          : Advanced Video Codec
Format profile         :
Format settings        : CABAC / 4 Ref Frames
Format settings, CABAC       : Yes
Format settings, Reference frames  : 4 frames
Codec ID           : V_MPEG4/ISO/AVC
Duration           : 1 h 40 min
Bit rate           : 12.7 Mb/s
Width            : 1 920 pixels
Height           : 1 080 pixels
Display aspect ratio       : 16:9
Frame rate mode        : Constant
Frame rate           : 23.976 (24000/1001/189150) FPS
Color space          : YUV
Chroma subsampling       : 4:2:0
Bit depth          : 8 bits
Scan type          : Progressive
Bits/(Pixel*Frame)       : 0.256
Stream size          : 8.95 GiB (70%)
Writing library        : x264 core 163 r3059 b684ebe0
Encoding settings        : cabac=1 / ref=4 / deblock=1:-3:-3 / analyse=0x3:0x133 / me=umh / subme=10 / psy=1 / psy_rd=1.00:0.00 / mixed_ref=1 / me_range=32 / chroma_me=1 / trellis=2 / 8x8dct=1 / cqm=0 / deadzone=21,11 / fast_pskip=0 / chroma_qp_offset=-2 / threads=34 / lookahead_threads=8 / sliced_threads=0 / nr=0 / decimate=0 / interlaced=0 / bluray_compat=0 / constrained_intra=0 / bframes=16 / b_pyramid=2 / b_adapt=2 / b_bias=0 / direct=3 / weightb=1 / open_gop=0 / weightp=2 / keyint=240 / keyint_min=24 / scenecut=40 / intra_refresh=0 / rc_lookahead=60 / rc=crf / mbtree=0 / crf=22.8 / qcomp=0.65 / qpmin=0 / qpmax=69 / qpstep=4 / vbv_maxrate=62500 / vbv_bufsize=78125 / crf_max=0.0 / nal_hrd=none / filler=0 / ip_ratio=1.40 / pb_ratio=1.30 / aq=2:0.80
Default            : Yes
Forced           : No
Color range          : Limited
Color primaries        : BT.709
Transfer characteristics     : BT.709
Matrix coefficients        : BT.709

Audio #1
ID             : 2
Format           : DTS ES XLL
Format/Info          : Digital Theater Systems
Commercial name        : DTS-HD Master Audio
Codec ID           : A_DTS
Duration           : 1 h 40 min
Bit rate mode          : Variable
Bit rate           : 5 148 kb/s
Channel(s)           : 8 channels
Channel layout         : C L R Ls Rs LFE Lb Rb
Sampling rate          : 48.0 kHz
Frame rate           : 93.750 FPS (512 SPF)
Bit depth          : 24 bits
Compression mode         : Lossless
Stream size          : 3.63 GiB (28%)
Language           : English
Default            : Yes
Forced           : No

Audio #2
ID             : 3
Format           : AAC LC
Format/Info          : Advanced Audio Codec Low Complexity
Codec ID           : A_AAC-2
Duration           : 1 h 40 min
Bit rate           : 100.0 kb/s
Channel(s)           : 2 channels
Channel layout         : L R
Sampling rate          : 48.0 kHz
Frame rate           : 46.875 FPS (1024 SPF)
Compression mode         : Lossy
Stream size          : 72.1 MiB (1%)
Title            : Commentary with Director Paul Michael Glaser and Producer Tim Zinnemann
Language           : English
Default            : No
Forced           : No

Audio #3
ID             : 4
Format           : AAC LC
Format/Info          : Advanced Audio Codec Low Complexity
Codec ID           : A_AAC-2
Duration           : 1 h 40 min
Bit rate           : 99.1 kb/s
Channel(s)           : 2 channels
Channel layout         : L R
Sampling rate          : 48.0 kHz
Frame rate           : 46.875 FPS (1024 SPF)
Compression mode         : Lossy
Stream size          : 71.5 MiB (1%)
Title            : Commentary by Producer Rob Cohen
Language           : English
Default            : No
Forced           : No

Text #1
ID             : 5
Format           : UTF-8
Codec ID           : S_TEXT/UTF8
Codec ID/Info          : UTF-8 Plain Text
Duration           : 1 h 38 min
Bit rate           : 54 b/s
Count of elements        : 1146
Stream size          : 39.3 KiB (0%)
Language           : English
Default            : No
Forced           : No

Text #2
ID             : 6
Format           : PGS
Muxing mode          : zlib
Codec ID           : S_HDMV/PGS
Codec ID/Info          : Picture based subtitle format used on BDs/HD-DVDs
Duration           : 1 h 39 min
Bit rate           : 26.6 kb/s
Count of elements        : 1858
Stream size          : 18.9 MiB (0%)
Language           : German
Default            : No
Forced           : No

Text #3
ID             : 7
Format           : PGS
Muxing mode          : zlib
Codec ID           : S_HDMV/PGS
Codec ID/Info          : Picture based subtitle format used on BDs/HD-DVDs
Duration           : 1 h 40 min
Bit rate           : 43.6 kb/s
Count of elements        : 1928
Stream size          : 31.2 MiB (0%)
Language           : German
Default            : No
Forced           : No

Text #4
ID             : 8
Format           : PGS
Muxing mode          : zlib
Codec ID           : S_HDMV/PGS
Codec ID/Info          : Picture based subtitle format used on BDs/HD-DVDs
Duration           : 1 h 40 min
Bit rate           : 49.2 kb/s
Count of elements        : 1936
Stream size          : 35.3 MiB (0%)
Language           : German
Default            : No
Forced           : No

Menu
00:00:00.000         : :Chapter 1
00:03:21.743         : :Chapter 2
00:13:41.195         : :Chapter 3
00:21:57.775         : :Chapter 4
00:29:00.155         : :Chapter 5
00:34:45.458         : :Chapter 6
00:40:24.589         : :Chapter 7
00:45:14.921         : :Chapter 8
00:50:00.956         : :Chapter 9
00:55:49.054         : :Chapter 10
01:02:36.920         : :Chapter 11
01:09:11.564         : :Chapter 12
01:16:41.097         : :Chapter 13
01:23:29.046         : :Chapter 14
01:29:38.832         : :Chapter 15
01:33:24.432         : :Chapter 16
01:40:42.286         : :Chapter 17






                                                                  
                                                                                                                                                                                                                                                                                 
5f363d9097ee555c5bac9bf980f82225.torrent (16.7 KB)

回复

使用道具 举报

百度云电影论坛 ( 辽ICP备17019482号-3 )

本网站所有资源来自网络,如无意中侵犯了您的权益,请发邮件至 [email protected],立即清除相关链接

GMT+8, 2022-11-30 04:09 , Processed in 0.059940 second(s), 29 queries .

Powered by Discuz! X3.2

© 2001-2013 Comsenz Inc.

快速回复 返回顶部 返回列表