百度云电影论坛

 找回密码
 立即注册

童子军的夏天 Scout.toujours.1985.FRENCH.1080p.BluRay.x264.FLAC.2.0-HANDJOB 8.24G ...

[复制链接]

admin 发表于 2021-10-18 16:29:16 | 显示全部楼层 |阅读模式
童子军的夏天 Scout.toujours.1985.FRENCH.1080p.BluRay.x264.FLAC.2.0-HANDJOB 8.24GB                                                                                                                                                                              -->
帖子完整标题:童子军的夏天 Scout.toujours.1985.FRENCH.1080p.BluRay.x264.FLAC.2.0-HANDJOB 8.24GB




◎译  名 童子军的夏天
◎片  名 Scout toujours...
◎年  代 1985
◎产  地 法国
◎类  别 喜剧
◎语  言 法语
◎上映日期 1985
◎豆瓣评分 /10 from 0 users
◎ 
◎片  长 98 分钟
◎导  演 热拉尔·朱尼奥 Gérard Jugnot
◎编  剧 热拉尔·朱尼奥 Gérard Jugnot
◎主  演 热拉尔·朱尼奥 Gérard Jugnot
     让·鲁泽里 Jean Rougerie
     让-保罗·科玛特 Jean-Paul Comart
     Fabien Remblier Fabien Remblier
     Sophie Grimaldi Sophie Grimaldi
     莫里斯·巴里埃 Maurice Barrier
     路易斯·莱特里尔 Louis Leterrier

◎标  签 法国 | 童子军 | 法国电影 | 喜剧 | 儿童

◎简  介

  Pendant l'été 1965, Jean-Baptiste Foucret doit remplacer un impitoyable chef scout. Moniteur étourdi et sans grande autorité, il prend en charge un teigneux groupe de jeunes garnements qui ne pensent alors qu'à lui faire vivre un enfer. Bien trop permissif, Jean-Baptiste perd très vite le contr?le du camp. Mais lorsqu'un des enfants se fait mordre par une vipère, la réactivité de leur chef leur fait tous changer radicalement d'avis.
Video
ID             : 1
Format           : AVC
Format/Info          : Advanced Video Codec
Format profile         :
Format settings        : CABAC / 5 Ref Frames
Format settings, CABAC       : Yes
Format settings, Reference frames  : 5 frames
Codec ID           : V_MPEG4/ISO/AVC
Duration           : 1 h 40 min
Bit rate           : 11.1 Mb/s
Width            : 1 920 pixels
Height           : 816 pixels
Display aspect ratio       : 2.35:1
Frame rate mode        : Constant
Frame rate           : 23.976 (24000/1001/189150) FPS
Color space          : YUV
Chroma subsampling       : 4:2:0
Bit depth          : 8 bits
Scan type          : Progressive
Bits/(Pixel*Frame)       : 0.295
Stream size          : 7.81 GiB (95%)
Writing library        : x264 core 157 r2935 545de2f
Encoding settings        : cabac=1 / ref=5 / deblock=1:-3:-3 / analyse=0x3:0x133 / me=umh / subme=11 / psy=1 / psy_rd=1.00:0.00 / mixed_ref=1 / me_range=32 / chroma_me=1 / trellis=2 / 8x8dct=1 / cqm=0 / deadzone=21,11 / fast_pskip=0 / chroma_qp_offset=-2 / threads=18 / lookahead_threads=4 / sliced_threads=0 / nr=0 / decimate=0 / interlaced=0 / bluray_compat=0 / constrained_intra=0 / bframes=16 / b_pyramid=2 / b_adapt=2 / b_bias=0 / direct=3 / weightb=1 / open_gop=0 / weightp=2 / keyint=240 / keyint_min=24 / scenecut=40 / intra_refresh=0 / rc_lookahead=60 / rc=crf / mbtree=0 / crf=19.8 / qcomp=0.60 / qpmin=0 / qpmax=69 / qpstep=4 / vbv_maxrate=62500 / vbv_bufsize=78125 / crf_max=0.0 / nal_hrd=none / filler=0 / ip_ratio=1.40 / pb_ratio=1.30 / aq=2:1.00
Default            : Yes
Forced           : No
Color range          : Limited
Color primaries        : BT.709
Transfer characteristics     : BT.709
Matrix coefficients        : BT.709

Audio
ID             : 2
Format           : FLAC
Format/Info          : Free Lossless Audio Codec
Codec ID           : A_FLAC
Duration           : 1 h 40 min
Bit rate mode          : Variable
Bit rate           : 606 kb/s
Channel(s)           : 2 channels
Sampling rate          : 48.0 kHz
Frame rate           : 11.719 FPS (4096 SPF)
Bit depth          : 16 bits
Compression mode         : Lossless
Stream size          : 437 MiB (5%)
Writing library        : libFLAC 1.2.1 (UTC 2007-09-17)
Language           : French
Default            : Yes
Forced           : No

Text #1
ID             : 3
Format           : UTF-8
Codec ID           : S_TEXT/UTF8
Codec ID/Info          : UTF-8 Plain Text
Duration           : 1 h 37 min
Bit rate           : 68 b/s
Count of elements        : 1362
Stream size          : 49.1 KiB (0%)
Language           : English
Default            : Yes
Forced           : No

Text #2
ID             : 4
Format           : PGS
Muxing mode          : zlib
Codec ID           : S_HDMV/PGS
Codec ID/Info          : Picture based subtitle format used on BDs/HD-DVDs
Duration           : 1 h 39 min
Bit rate           : 33.2 kb/s
Count of elements        : 3102
Stream size          : 23.7 MiB (0%)
Language           : French
Default            : No
Forced           : No

Menu
00:00:00.000         : :CHAPTER01
00:07:05.175         : :CHAPTER02
00:15:13.329         : :CHAPTER03
00:23:28.824         : :CHAPTER04
00:31:11.328         : :CHAPTER05
00:37:45.722         : :CHAPTER06
00:47:19.170         : :CHAPTER07
00:55:27.658         : :CHAPTER08
01:03:29.806         : :CHAPTER09
01:13:13.222         : :CHAPTER10
01:22:46.837         : :CHAPTER11
01:38:38.830         : :CHAPTER12





                                                                  
                                                                                                                                                                                                                                                                                 
31cca7e6287864e8338f6e2336f82889.torrent (21.25 KB)

回复

使用道具 举报

百度云电影论坛 ( 辽ICP备17019482号-3 )

本网站所有资源来自网络,如无意中侵犯了您的权益,请发邮件至 [email protected],立即清除相关链接

GMT+8, 2023-1-28 11:18 , Processed in 0.058555 second(s), 29 queries .

Powered by Discuz! X3.2

© 2001-2013 Comsenz Inc.

快速回复 返回顶部 返回列表