百度云电影论坛

 找回密码
 立即注册

霸王宝剑 Sword.of.the.Conqueror.1961.1080p.BluRay.x264-OLDTiME 11.96GB

[复制链接]

admin 发表于 2021-10-18 16:29:16 | 显示全部楼层 |阅读模式
霸王宝剑 Sword.of.the.Conqueror.1961.1080p.BluRay.x264-OLDTiME 11.96GB                                                                                                                                                                              -->
帖子完整标题:霸王宝剑 Sword.of.the.Conqueror.1961.1080p.BluRay.x264-OLDTiME 11.96GB





◎译  名 霸王宝剑/Sword of the Conqueror
◎片  名 Rosmunda e Alboino
◎年  代 1961
◎产  地 意大利
◎类  别 冒险
◎语  言 意大利语
◎上映日期 1961
◎豆瓣评分 /10 from 0 users
◎ 
◎片  长 96 分钟
◎导  演 Carlo Campogalliani Carlo Campogalliani
◎编  剧 Paola Barbara Paola Barbara / Carlo Campogalliani Carlo Campogalliani / 普里莫·赞格里欧 Primo Zeglio
◎主  演 埃莱奥若拉·罗西·德拉哥 Eleonora Rossi Drago
     Amina Pirani Maggi Amina Pirani Maggi
     Aldo Pini Aldo Pini
     维托里奥·萨尼波利 Vittorio Sanipoli
     杰克·帕兰斯 Jack Palance
     Vittorio Vaser Vittorio Vaser
     Renato Mori Renato Mori
     埃达·费德罗娜奥 Edda Ferronao
     卡洛·丹杰洛 Carlo D'Angelo
     Calisto Calisti Calisto Calisti
     圭多·切拉诺 Guido Celano
     Andrea Bosic Andrea Bosic
     盖·麦迪森 Guy Madison
     艾迪·韦瑟 Edy Vessel

◎标  签 意大利 | 动作 | JackPalance | GuyMadison | 6.6 | 1961 | **

◎简  介

  A cruel Lombard ruler marries the daughter of another king, kills her father, beats her lover but he ultimately faces a major popular revolt against him.
Video
ID             : 1
Format           : AVC
Format/Info          : Advanced Video Codec
Format profile         :
Format settings        : CABAC / 5 Ref Frames
Format settings, CABAC       : Yes
Format settings, Reference frames  : 5 frames
Codec ID           : V_MPEG4/ISO/AVC
Duration           : 1 h 37 min
Bit rate           : 17.0 Mb/s
Width            : 1 920 pixels
Height           : 822 pixels
Display aspect ratio       : 2.35:1
Frame rate mode        : Constant
Frame rate           : 23.976 (24000/1001/189150) FPS
Color space          : YUV
Chroma subsampling       : 4:2:0
Bit depth          : 8 bits
Scan type          : Progressive
Bits/(Pixel*Frame)       : 0.449
Stream size          : 11.6 GiB (97%)
Writing library        : x264 core 164 r3065 ae03d92
Encoding settings        : cabac=1 / ref=5 / deblock=1:-3:-3 / analyse=0x3:0x133 / me=umh / subme=9 / psy=1 / psy_rd=1.00:0.00 / mixed_ref=1 / me_range=16 / chroma_me=1 / trellis=2 / 8x8dct=1 / cqm=0 / deadzone=21,11 / fast_pskip=0 / chroma_qp_offset=-2 / threads=24 / lookahead_threads=2 / sliced_threads=0 / nr=0 / decimate=1 / interlaced=0 / bluray_compat=0 / constrained_intra=0 / bframes=3 / b_pyramid=2 / b_adapt=2 / b_bias=0 / direct=3 / weightb=1 / open_gop=0 / weightp=2 / keyint=250 / keyint_min=23 / scenecut=40 / intra_refresh=0 / rc_lookahead=60 / rc=crf / mbtree=1 / crf=17.0 / qcomp=0.60 / qpmin=0 / qpmax=69 / qpstep=4 / ip_ratio=1.40 / aq=1:1.00
Language           : English
Default            : Yes
Forced           : No

Audio #1
ID             : 2
Format           : FLAC
Format/Info          : Free Lossless Audio Codec
Codec ID           : A_FLAC
Duration           : 1 h 37 min
Bit rate mode          : Variable
Bit rate           : 346 kb/s
Channel(s)           : 2 channels
Channel layout         : L R
Sampling rate          : 48.0 kHz
Frame rate           : 11.719 FPS (4096 SPF)
Bit depth          : 16 bits
Compression mode         : Lossless
Stream size          : 241 MiB (2%)
Writing library        : libFLAC 1.3.2 (UTC 2017-01-01)
Language           : Italian
Default            : Yes
Forced           : No

Audio #2
ID             : 3
Format           : FLAC
Format/Info          : Free Lossless Audio Codec
Codec ID           : A_FLAC
Duration           : 1 h 37 min
Bit rate mode          : Variable
Bit rate           : 243 kb/s
Channel(s)           : 2 channels
Channel layout         : L R
Sampling rate          : 48.0 kHz
Frame rate           : 11.719 FPS (4096 SPF)
Bit depth          : 16 bits
Compression mode         : Lossless
Stream size          : 169 MiB (1%)
Title            : dubbed
Writing library        : libFLAC 1.3.2 (UTC 2017-01-01)
Language           : English
Default            : No
Forced           : No

Text #1
ID             : 4
Format           : UTF-8
Codec ID           : S_TEXT/UTF8
Codec ID/Info          : UTF-8 Plain Text
Duration           : 1 h 33 min
Bit rate           : 34 b/s
Count of elements        : 625
Stream size          : 23.5 KiB (0%)
Language           : English
Default            : Yes
Forced           : No

Text #2
ID             : 5
Format           : PGS
Muxing mode          : zlib
Codec ID           : S_HDMV/PGS
Codec ID/Info          : Picture based subtitle format used on BDs/HD-DVDs
Duration           : 1 h 34 min
Bit rate           : 11.6 kb/s
Count of elements        : 1251
Stream size          : 7.87 MiB (0%)
Language           : English
Default            : No
Forced           : No

Text #3
ID             : 6
Format           : PGS
Muxing mode          : zlib
Codec ID           : S_HDMV/PGS
Codec ID/Info          : Picture based subtitle format used on BDs/HD-DVDs
Duration           : 1 h 34 min
Bit rate           : 13.5 kb/s
Count of elements        : 1261
Stream size          : 9.15 MiB (0%)
Language           : German
Default            : No
Forced           : No

Text #4
ID             : 7
Format           : PGS
Muxing mode          : zlib
Codec ID           : S_HDMV/PGS
Codec ID/Info          : Picture based subtitle format used on BDs/HD-DVDs
Duration           : 1 min 2 s
Bit rate           : 18.7 kb/s
Count of elements        : 11
Stream size          : 143 KiB (0%)
Title            : forced
Language           : German
Default            : No
Forced           : No

Menu
00:00:00.000         : en:Chapter 01
00:00:24.691         : en:Chapter 02
00:07:43.838         : en:Chapter 03
00:14:14.103         : en:Chapter 04
00:27:50.377         : en:Chapter 05
00:36:31.231         : en:Chapter 06
00:43:20.973         : en:Chapter 07
00:55:35.332         : en:Chapter 08
01:04:32.744         : en:Chapter 09
01:14:18.204         : en:Chapter 10
01:25:41.136         : en:Chapter 11

[/url]




                                                                  
                                                                                                                                                                                                                                                                                 
dc510fc14156b0d75079286e3486141e.torrent (15.67 KB)

回复

使用道具 举报

百度云电影论坛 ( 辽ICP备17019482号-3 )

本网站所有资源来自网络,如无意中侵犯了您的权益,请发邮件至 [email protected],立即清除相关链接

GMT+8, 2023-1-28 10:46 , Processed in 0.067124 second(s), 33 queries .

Powered by Discuz! X3.2

© 2001-2013 Comsenz Inc.

快速回复 返回顶部 返回列表