百度云电影论坛

 找回密码
 立即注册

销魂天师之古堡惊魂/鬼屋 Elviras.Haunted.Hills.2001.1080p.BluRay.x264.DTS-FGT 8.1 ...

[复制链接]

admin 发表于 2021-10-17 16:14:10 | 显示全部楼层 |阅读模式
销魂天师之古堡惊魂/鬼屋 Elviras.Haunted.Hills.2001.1080p.BluRay.x264.DTS-FGT 8.19GB                                                                                                                                                                              -->
帖子完整标题:销魂天师之古堡惊魂/鬼屋 Elviras.Haunted.Hills.2001.1080p.BluRay.x264.DTS-FGT 8.19GB




◎译  名 销魂天师之古堡惊魂/鬼屋
◎片  名 Elvira's Haunted Hills
◎年  代 2001
◎产  地 美国
◎类  别 喜剧 / 恐怖
◎语  言 英语
◎上映日期 2002-10-31(美国)
◎豆瓣评分 6.6/10 from 149 users
◎ 
◎片  长 90分钟
◎导  演 山姆·伊文 Sam Irvin
◎编  剧 卡珊德拉·彼得逊 Cassandra Peterson / 约翰·帕拉贡 John Paragon
◎主  演 卡珊德拉·彼得逊 Cassandra Peterson
     理查德·奥布里恩 Richard O'Brien
     玛丽·希尔 Mary Scheer
     斯科特·阿特金森 Scott Atkinson
     Heather Hopper Heather Hopper
     西奥多·丹内蒂 Theodor Danetti
     罗伯·鲍森 Rob Paulsen

◎标  签 喜剧 | 恐怖 | 美国 | B级 | 美国电影 | cult | Elvira | 惊悚

◎简  介

  回溯到1851年,在罗马尼亚的喀尔巴阡山脉,黑暗的情妇埃尔维拉“和她的女仆邹邹去巴黎的路上,在一个闹鬼的城堡过夜,这个城堡是由弗拉基米尔·赫尔苏布斯拥有,他死去的妻子和埃尔维拉长得很像...
Video
ID             : 1
Format           : AVC
Format/Info          : Advanced Video Codec
Format profile         :
Format settings        : CABAC / 4 Ref Frames
Format settings, CABAC       : Yes
Format settings, Reference frames  : 4 frames
Codec ID           : V_MPEG4/ISO/AVC
Duration           : 1 h 30 min
Bit rate           : 11.5 Mb/s
Width            : 1 920 pixels
Height           : 1 036 pixels
Display aspect ratio       : 1.85:1
Frame rate mode        : Constant
Frame rate           : 23.976 (24000/1001/189150) FPS
Color space          : YUV
Chroma subsampling       : 4:2:0
Bit depth          : 8 bits
Scan type          : Progressive
Bits/(Pixel*Frame)       : 0.241
Stream size          : 7.23 GiB (88%)
Writing library        : x264 core 148 r2795M aaa9aa8
Encoding settings        : cabac=1 / ref=4 / deblock=1:-2:-2 / analyse=0x3:0x113 / me=umh / subme=9 / psy=1 / psy_rd=1.00:0.15 / mixed_ref=1 / me_range=16 / chroma_me=1 / trellis=2 / 8x8dct=1 / cqm=0 / deadzone=21,11 / fast_pskip=1 / chroma_qp_offset=-3 / threads=24 / lookahead_threads=3 / sliced_threads=0 / nr=0 / decimate=1 / interlaced=0 / bluray_compat=0 / constrained_intra=0 / bframes=3 / b_pyramid=2 / b_adapt=1 / b_bias=0 / direct=3 / weightb=1 / open_gop=0 / weightp=2 / keyint=250 / keyint_min=25 / scenecut=40 / intra_refresh=0 / rc_lookahead=50 / rc=2pass / mbtree=1 / bitrate=11500 / ratetol=1.0 / qcomp=0.60 / qpmin=0 / qpmax=69 / qpstep=4 / cplxblur=20.0 / qblur=0.5 / vbv_maxrate=31250 / vbv_bufsize=31250 / nal_hrd=none / filler=0 / ip_ratio=1.40 / aq=1:1.00
Language           : English
Default            : Yes
Forced           : No

Audio
ID             : 2
Format           : DTS
Format/Info          : Digital Theater Systems
Codec ID           : A_DTS
Duration           : 1 h 30 min
Bit rate mode          : Constant
Bit rate           : 1 509 kb/s
Channel(s)           : 6 channels
Channel layout         : C L R Ls Rs LFE
Sampling rate          : 48.0 kHz
Frame rate           : 93.750 FPS (512 SPF)
Bit depth          : 24 bits
Compression mode         : Lossy
Stream size          : 972 MiB (12%)
Language           : English
Default            : Yes
Forced           : No

Text
ID             : 3
Format           : UTF-8
Codec ID           : S_TEXT/UTF8
Codec ID/Info          : UTF-8 Plain Text
Duration           : 1 h 23 min
Bit rate           : 46 b/s
Count of elements        : 999
Stream size          : 28.7 KiB (0%)
Language           : English
Default            : Yes
Forced           : No

Menu
00:00:00.000         : en:Chapter 01
00:09:01.624         : en:Chapter 02
00:16:44.878         : en:Chapter 03
00:26:13.697         : en:Chapter 04
00:33:53.990         : en:Chapter 05
00:43:53.756         : en:Chapter 06
00:49:11.114         : en:Chapter 07
00:55:25.530         : en:Chapter 08
01:02:55.062         : en:Chapter 09
01:10:37.900         : en:Chapter 10
01:21:24.379         : en:Chapter 11
01:26:04.784         : en:Chapter 12
01:30:04.399         : en:Chapter 13




                                                                  
                                                                                                                                                                                                                                                                                 
e89d4efbe319376ffa358a16059ab466.torrent (21.09 KB)

回复

使用道具 举报

百度云电影论坛 ( 辽ICP备17019482号-3 )

本网站所有资源来自网络,如无意中侵犯了您的权益,请发邮件至 [email protected],立即清除相关链接

GMT+8, 2023-1-28 10:50 , Processed in 0.059044 second(s), 29 queries .

Powered by Discuz! X3.2

© 2001-2013 Comsenz Inc.

快速回复 返回顶部 返回列表