百度云电影论坛

 找回密码
 立即注册

《阿玛柯德》的秘密日记 The.Secret.Diary.of.Amarcord.1974.1080p.BluRay.x264-BiPOL ...

[复制链接]

admin 发表于 2021-10-17 16:14:10 | 显示全部楼层 |阅读模式
《阿玛柯德》的秘密日记 The.Secret.Diary.of.Amarcord.1974.1080p.BluRay.x264-BiPOLAR 2.80GB                                                                                                                                                                              -->
帖子完整标题:《阿玛柯德》的秘密日记 The.Secret.Diary.of.Amarcord.1974.1080p.BluRay.x264-BiPOLAR 2.80GB





◎译  名 《阿玛柯德》的秘密日记/The Secret Diary of "Amarcord"
◎片  名 Diario segreto di Amarcord
◎年  代 1974
◎产  地 意大利
◎类  别 纪录片
◎语  言 意大利语
◎上映日期 1974(意大利)
◎豆瓣评分 /10 from 0 users
◎ 
◎片  长 43分钟
◎编  剧 Liliane Betti Liliane Betti
◎主  演 费德里科·费里尼 Federico Fellini
     桑德拉·米洛 Sandra Milo
     阿德里娅娜·阿斯蒂 Adriana Asti
     托尼诺·格拉 Tonino Guerra
     尼诺·罗塔 Nino Rota

◎标  签 纪录片 | 戲中戲 | 意大利 | 已下

◎简  介

  暂无相关剧情介绍
Video
ID             : 1
Format           : AVC
Format/Info          : Advanced Video Codec
Format profile         :
Format settings        : CABAC / 5 Ref Frames
Format settings, CABAC       : Yes
Format settings, Reference frames  : 5 frames
Codec ID           : V_MPEG4/ISO/AVC
Duration           : 44 min 59 s
Bit rate           : 8 696 kb/s
Width            : 1 444 pixels
Height           : 1 080 pixels
Display aspect ratio       : 4:3
Frame rate mode        : Constant
Frame rate           : 23.976 (24000/1001/189150) FPS
Color space          : YUV
Chroma subsampling       : 4:2:0
Bit depth          : 8 bits
Scan type          : Progressive
Bits/(Pixel*Frame)       : 0.233
Stream size          : 2.73 GiB (98%)
Writing library        : x264 core 164 r3075 66a5bc1
Encoding settings        : cabac=1 / ref=5 / deblock=1:-3:-3 / analyse=0x3:0x133 / me=umh / subme=10 / psy=1 / psy_rd=1.00:0.15 / mixed_ref=1 / me_range=24 / chroma_me=1 / trellis=2 / 8x8dct=1 / cqm=0 / deadzone=21,11 / fast_pskip=1 / chroma_qp_offset=-3 / threads=18 / lookahead_threads=3 / sliced_threads=0 / nr=0 / decimate=1 / interlaced=0 / bluray_compat=0 / constrained_intra=0 / bframes=8 / b_pyramid=2 / b_adapt=2 / b_bias=0 / direct=3 / weightb=1 / open_gop=0 / weightp=2 / keyint=250 / keyint_min=23 / scenecut=40 / intra_refresh=0 / rc_lookahead=60 / rc=crf / mbtree=1 / crf=20.0 / qcomp=0.60 / qpmin=0 / qpmax=69 / qpstep=4 / ip_ratio=1.40 / aq=3:0.50
Language           : English
Default            : Yes
Forced           : No

Audio
ID             : 2
Format           : AC-3
Format/Info          : Audio Coding 3
Commercial name        : Dolby Digital
Codec ID           : A_AC3
Duration           : 44 min 59 s
Bit rate mode          : Constant
Bit rate           : 192 kb/s
Channel(s)           : 1 channel
Channel layout         : C
Sampling rate          : 48.0 kHz
Frame rate           : 31.250 FPS (1536 SPF)
Compression mode         : Lossy
Stream size          : 61.8 MiB (2%)
Language           : Italian
Service kind         : Complete Main
Default            : Yes
Forced           : No

Text #1
ID             : 3
Format           : UTF-8
Codec ID           : S_TEXT/UTF8
Codec ID/Info          : UTF-8 Plain Text
Duration           : 44 min 4 s
Bit rate           : 85 b/s
Count of elements        : 595
Stream size          : 27.5 KiB (0%)
Title            : English
Language           : English
Default            : Yes
Forced           : Yes

Text #2
ID             : 4
Format           : PGS
Muxing mode          : zlib
Codec ID           : S_HDMV/PGS
Codec ID/Info          : Picture based subtitle format used on BDs/HD-DVDs
Duration           : 44 min 4 s
Bit rate           : 11.5 kb/s
Count of elements        : 1190
Stream size          : 3.64 MiB (0%)
Title            : English
Language           : English
Default            : No
Forced           : No





                                                                  
                                                                                                                                                                                                                                                                                 
8d032c9e55370d92a8645590902e3497.torrent (28.84 KB)

回复

使用道具 举报

百度云电影论坛 ( 辽ICP备17019482号-3 )

本网站所有资源来自网络,如无意中侵犯了您的权益,请发邮件至 [email protected],立即清除相关链接

GMT+8, 2023-1-28 10:36 , Processed in 0.066084 second(s), 33 queries .

Powered by Discuz! X3.2

© 2001-2013 Comsenz Inc.

快速回复 返回顶部 返回列表