百度云电影论坛

 找回密码
 立即注册

Scream.1996.REMASTERED.1080p.BluRay.x264-SCARYMOVIE 19.23GB

[复制链接]

admin 发表于 2021-10-17 16:14:10 | 显示全部楼层 |阅读模式
Scream.1996.REMASTERED.1080p.BluRay.x264-SCARYMOVIE 19.23GB                                                                                                                                                                              -->
帖子完整标题: Scream.1996.REMASTERED.1080p.BluRay.x264-SCARYMOVIE 19.23GB


Video
ID             : 1
Format           : AVC
Format/Info          : Advanced Video Codec
Format profile         :
Format settings        : CABAC / 5 Ref Frames
Format settings, CABAC       : Yes
Format settings, Reference frames  : 5 frames
Codec ID           : V_MPEG4/ISO/AVC
Duration           : 1 h 51 min
Bit rate           : 20.4 Mb/s
Width            : 1 920 pixels
Height           : 816 pixels
Display aspect ratio       : 2.35:1
Frame rate mode        : Constant
Frame rate           : 23.976 (24000/1001/189150) FPS
Color space          : YUV
Chroma subsampling       : 4:2:0
Bit depth          : 8 bits
Scan type          : Progressive
Bits/(Pixel*Frame)       : 0.544
Stream size          : 15.9 GiB (82%)
Writing library        : x264 core 164 r3075 66a5bc1
Encoding settings        : cabac=1 / ref=5 / deblock=1:-3:-3 / analyse=0x3:0x133 / me=umh / subme=9 / psy=1 / psy_rd=1.10:0.00 / mixed_ref=1 / me_range=48 / chroma_me=1 / trellis=2 / 8x8dct=1 / cqm=0 / deadzone=21,11 / fast_pskip=0 / chroma_qp_offset=-2 / threads=25 / lookahead_threads=2 / sliced_threads=0 / nr=0 / decimate=0 / interlaced=0 / bluray_compat=0 / constrained_intra=0 / bframes=3 / b_pyramid=2 / b_adapt=2 / b_bias=0 / direct=3 / weightb=1 / open_gop=0 / weightp=2 / keyint=250 / keyint_min=23 / scenecut=40 / intra_refresh=0 / rc=crf / mbtree=0 / crf=15.5 / qcomp=0.60 / qpmin=0 / qpmax=69 / qpstep=4 / ip_ratio=1.40 / pb_ratio=1.30 / aq=3:0.70
Default            : Yes
Forced           : No
Color range          : Limited
Matrix coefficients        : BT.709

Audio #1
ID             : 2
Format           : DTS XLL
Format/Info          : Digital Theater Systems
Commercial name        : DTS-HD Master Audio
Codec ID           : A_DTS
Duration           : 1 h 51 min
Bit rate mode          : Variable
Bit rate           : 3 718 kb/s
Channel(s)           : 6 channels
Channel layout         : C L R Ls Rs LFE
Sampling rate          : 48.0 kHz
Frame rate           : 93.750 FPS (512 SPF)
Bit depth          : 24 bits
Compression mode         : Lossless
Stream size          : 2.88 GiB (15%)
Title            : DTS-HD MA 5.1
Language           : English
Default            : Yes
Forced           : No

Audio #2
ID             : 28
Format           : AAC LC
Format/Info          : Advanced Audio Codec Low Complexity
Codec ID           : A_AAC-2
Duration           : 1 h 51 min
Bit rate           : 101 kb/s
Channel(s)           : 2 channels
Channel layout         : L R
Sampling rate          : 48.0 kHz
Frame rate           : 46.875 FPS (1024 SPF)
Compression mode         : Lossy
Delay relative to video      : 9 ms
Stream size          : 80.6 MiB (0%)
Title            : Commentary
Language           : English
Default            : No
Forced           : No

Text #1
ID             : 3
Format           : PGS
Muxing mode          : zlib
Codec ID           : S_HDMV/PGS
Codec ID/Info          : Picture based subtitle format used on BDs/HD-DVDs
Duration           : 1 h 43 min
Bit rate           : 42.8 kb/s
Count of elements        : 2928
Stream size          : 31.7 MiB (0%)
Title            : Full
Language           : English
Default            : No
Forced           : No

Text #2
ID             : 4
Format           : PGS
Muxing mode          : zlib
Codec ID           : S_HDMV/PGS
Codec ID/Info          : Picture based subtitle format used on BDs/HD-DVDs
Duration           : 1 h 43 min
Bit rate           : 49.5 kb/s
Count of elements        : 3496
Stream size          : 36.8 MiB (0%)
Title            : English SDH
Language           : English
Default            : No
Forced           : No

Text #3
ID             : 5
Format           : PGS
Muxing mode          : zlib
Codec ID           : S_HDMV/PGS
Codec ID/Info          : Picture based subtitle format used on BDs/HD-DVDs
Duration           : 1 h 50 min
Bit rate           : 72.8 kb/s
Count of elements        : 3886
Stream size          : 57.5 MiB (0%)
Title            : Commentary
Language           : English
Default            : No
Forced           : No

Text #4
ID             : 6
Format           : PGS
Muxing mode          : zlib
Codec ID           : S_HDMV/PGS
Codec ID/Info          : Picture based subtitle format used on BDs/HD-DVDs
Duration           : 1 h 50 min
Bit rate           : 30.4 kb/s
Count of elements        : 2716
Stream size          : 24.0 MiB (0%)
Title            : French
Language           : French
Default            : No
Forced           : No

Text #5
ID             : 7
Format           : PGS
Muxing mode          : zlib
Codec ID           : S_HDMV/PGS
Codec ID/Info          : Picture based subtitle format used on BDs/HD-DVDs
Duration           : 1 h 50 min
Bit rate           : 57.7 kb/s
Count of elements        : 3828
Stream size          : 45.7 MiB (0%)
Title            : Commentary
Language           : French
Default            : No
Forced           : No

Text #6
ID             : 8
Format           : PGS
Muxing mode          : zlib
Codec ID           : S_HDMV/PGS
Codec ID/Info          : Picture based subtitle format used on BDs/HD-DVDs
Duration           : 1 h 50 min
Bit rate           : 35.5 kb/s
Count of elements        : 2812
Stream size          : 28.1 MiB (0%)
Title            : Spanish
Language           : Spanish
Default            : No
Forced           : No

Text #7
ID             : 9
Format           : PGS
Muxing mode          : zlib
Codec ID           : S_HDMV/PGS
Codec ID/Info          : Picture based subtitle format used on BDs/HD-DVDs
Duration           : 1 h 50 min
Bit rate           : 28.4 kb/s
Count of elements        : 2678
Stream size          : 22.5 MiB (0%)
Title            : Spanish
Language           : Spanish
Default            : No
Forced           : No

Text #8
ID             : 10
Format           : PGS
Muxing mode          : zlib
Codec ID           : S_HDMV/PGS
Codec ID/Info          : Picture based subtitle format used on BDs/HD-DVDs
Duration           : 1 h 50 min
Bit rate           : 58.3 kb/s
Count of elements        : 3696
Stream size          : 46.1 MiB (0%)
Title            : Commentary
Language           : Spanish
Default            : No
Forced           : No

Text #9
ID             : 11
Format           : PGS
Muxing mode          : zlib
Codec ID           : S_HDMV/PGS
Codec ID/Info          : Picture based subtitle format used on BDs/HD-DVDs
Duration           : 1 h 50 min
Bit rate           : 58.3 kb/s
Count of elements        : 3768
Stream size          : 46.2 MiB (0%)
Title            : Commentary
Language           : Spanish
Default            : No
Forced           : No

Text #10
ID             : 12
Format           : PGS
Muxing mode          : zlib
Codec ID           : S_HDMV/PGS
Codec ID/Info          : Picture based subtitle format used on BDs/HD-DVDs
Duration           : 1 h 50 min
Bit rate           : 36.4 kb/s
Count of elements        : 2866
Stream size          : 28.8 MiB (0%)
Title            : Portuguese
Language           : Portuguese
Default            : No
Forced           : No

Text #11
ID             : 13
Format           : PGS
Muxing mode          : zlib
Codec ID           : S_HDMV/PGS
Codec ID/Info          : Picture based subtitle format used on BDs/HD-DVDs
Duration           : 1 h 50 min
Bit rate           : 61.0 kb/s
Count of elements        : 3648
Stream size          : 48.2 MiB (0%)
Title            : Commentary
Language           : Portuguese
Default            : No
Forced           : No

Text #12
ID             : 14
Format           : PGS
Muxing mode          : zlib
Codec ID           : S_HDMV/PGS
Codec ID/Info          : Picture based subtitle format used on BDs/HD-DVDs
Duration           : 1 h 50 min
Bit rate           : 28.9 kb/s
Count of elements        : 2536
Stream size          : 22.8 MiB (0%)
Title            : Italian
Language           : Italian
Default            : No
Forced           : No

Text #13
ID             : 15
Format           : PGS
Muxing mode          : zlib
Codec ID           : S_HDMV/PGS
Codec ID/Info          : Picture based subtitle format used on BDs/HD-DVDs
Duration           : 1 h 50 min
Bit rate           : 55.3 kb/s
Count of elements        : 3441
Stream size          : 43.8 MiB (0%)
Title            : Commentary
Language           : Italian
Default            : No
Forced           : No

Text #14
ID             : 16
Format           : PGS
Muxing mode          : zlib
Codec ID           : S_HDMV/PGS
Codec ID/Info          : Picture based subtitle format used on BDs/HD-DVDs
Duration           : 1 h 50 min
Bit rate           : 35.2 kb/s
Count of elements        : 2750
Stream size          : 27.8 MiB (0%)
Title            : German
Language           : German
Default            : No
Forced           : No

Text #15
ID             : 17
Format           : PGS
Muxing mode          : zlib
Codec ID           : S_HDMV/PGS
Codec ID/Info          : Picture based subtitle format used on BDs/HD-DVDs
Duration           : 1 h 50 min
Bit rate           : 65.7 kb/s
Count of elements        : 3478
Stream size          : 52.0 MiB (0%)
Title            : Commentary
Language           : German
Default            : No
Forced           : No

Text #16
ID             : 18
Format           : PGS
Muxing mode          : zlib
Codec ID           : S_HDMV/PGS
Codec ID/Info          : Picture based subtitle format used on BDs/HD-DVDs
Duration           : 1 h 50 min
Bit rate           : 29.7 kb/s
Count of elements        : 2260
Stream size          : 23.4 MiB (0%)
Title            : Dutch
Language           : Dutch
Default            : No
Forced           : No

Text #17
ID             : 19
Format           : PGS
Muxing mode          : zlib
Codec ID           : S_HDMV/PGS
Codec ID/Info          : Picture based subtitle format used on BDs/HD-DVDs
Duration           : 1 h 50 min
Bit rate           : 28.3 kb/s
Count of elements        : 2484
Stream size          : 22.4 MiB (0%)
Title            : Swedish
Language           : Swedish
Default            : No
Forced           : No

Text #18
ID             : 20
Format           : PGS
Muxing mode          : zlib
Codec ID           : S_HDMV/PGS
Codec ID/Info          : Picture based subtitle format used on BDs/HD-DVDs
Duration           : 1 h 50 min
Bit rate           : 26.9 kb/s
Count of elements        : 2612
Stream size          : 21.2 MiB (0%)
Title            : Norwegian
Language           : Norwegian
Default            : No
Forced           : No

Text #19
ID             : 21
Format           : PGS
Muxing mode          : zlib
Codec ID           : S_HDMV/PGS
Codec ID/Info          : Picture based subtitle format used on BDs/HD-DVDs
Duration           : 1 h 50 min
Bit rate           : 30.3 kb/s
Count of elements        : 2944
Stream size          : 23.9 MiB (0%)
Title            : Danish
Language           : Danish
Default            : No
Forced           : No

Text #20
ID             : 22
Format           : PGS
Muxing mode          : zlib
Codec ID           : S_HDMV/PGS
Codec ID/Info          : Picture based subtitle format used on BDs/HD-DVDs
Duration           : 1 h 50 min
Bit rate           : 30.2 kb/s
Count of elements        : 2636
Stream size          : 23.8 MiB (0%)
Title            : Finnish
Language           : Finnish
Default            : No
Forced           : No

Text #21
ID             : 23
Format           : PGS
Muxing mode          : zlib
Codec ID           : S_HDMV/PGS
Codec ID/Info          : Picture based subtitle format used on BDs/HD-DVDs
Duration           : 1 h 50 min
Bit rate           : 36.3 kb/s
Count of elements        : 2948
Stream size          : 28.7 MiB (0%)
Title            : Russian
Language           : Russian
Default            : No
Forced           : No

Text #22
ID             : 24
Format           : PGS
Muxing mode          : zlib
Codec ID           : S_HDMV/PGS
Codec ID/Info          : Picture based subtitle format used on BDs/HD-DVDs
Duration           : 1 h 43 min
Bit rate           : 25.9 kb/s
Count of elements        : 2740
Stream size          : 19.2 MiB (0%)
Title            : Japanese
Language           : Japanese
Default            : No
Forced           : No

Text #23
ID             : 25
Format           : PGS
Muxing mode          : zlib
Codec ID           : S_HDMV/PGS
Codec ID/Info          : Picture based subtitle format used on BDs/HD-DVDs
Duration           : 1 h 50 min
Bit rate           : 40.2 kb/s
Count of elements        : 3235
Stream size          : 31.8 MiB (0%)
Title            : Commentary
Language           : Japanese
Default            : No
Forced           : No

Text #24
ID             : 26
Format           : PGS
Muxing mode          : zlib
Codec ID           : S_HDMV/PGS
Codec ID/Info          : Picture based subtitle format used on BDs/HD-DVDs
Duration           : 1 h 50 min
Bit rate           : 27.7 kb/s
Count of elements        : 2876
Stream size          : 21.9 MiB (0%)
Title            : Korean
Language           : Korean
Default            : No
Forced           : No

Text #25
ID             : 27
Format           : PGS
Muxing mode          : zlib
Codec ID           : S_HDMV/PGS
Codec ID/Info          : Picture based subtitle format used on BDs/HD-DVDs
Duration           : 1 h 50 min
Bit rate           : 53.4 kb/s
Count of elements        : 3872
Stream size          : 42.2 MiB (0%)
Title            : Commentary
Language           : Korean
Default            : No
Forced           : No

Menu
00:00:00.000         : Chapter 01
00:00:18.810         : Chapter 02
00:12:59.529         : Chapter 03
00:18:43.080         : Chapter 04
00:33:08.028         : Chapter 05
00:35:57.781         : Chapter 06
00:37:13.690         : Chapter 07
00:40:05.445         : Chapter 08
00:51:15.489         : Chapter 09
01:04:27.238         : Chapter 10
01:13:07.133         : Chapter 11
01:19:49.284         : Chapter 12
01:27:02.050         : Chapter 13
01:34:41.301         : Chapter 14
01:36:28.199         : Chapter 15
01:38:04.087         : Chapter 16

[/url]

[/url]




                                                                  
                                                                                                                                                                                                                                                                                 
b43da308a067c8a68bc1a7fb7730728b.torrent (24.74 KB)

回复

使用道具 举报

百度云电影论坛 ( 辽ICP备17019482号-3 )

本网站所有资源来自网络,如无意中侵犯了您的权益,请发邮件至 [email protected],立即清除相关链接

GMT+8, 2023-1-28 11:02 , Processed in 0.068512 second(s), 33 queries .

Powered by Discuz! X3.2

© 2001-2013 Comsenz Inc.

快速回复 返回顶部 返回列表