百度云电影论坛

 找回密码
 立即注册

费里尼电视短片和广告集 Fellinis.TV.2003.1080p.BluRay.x264-BiPOLAR 2.33GB ... ...

[复制链接]

admin 发表于 2021-10-16 16:00:42 | 显示全部楼层 |阅读模式
费里尼电视短片和广告集 Fellinis.TV.2003.1080p.BluRay.x264-BiPOLAR 2.33GB                                                                                                                                                                              -->
帖子完整标题:费里尼电视短片和广告集 Fellinis.TV.2003.1080p.BluRay.x264-BiPOLAR 2.33GB





◎译  名 费里尼电视短片和广告集/Fellini TV Collection
◎片  名 La Tivù di Fellini
◎年  代 2003
◎产  地 意大利
◎类  别 短片
◎语  言 意大利语
◎上映日期 
◎豆瓣评分 /10 from 0 users
◎ 
◎片  长 35分钟

◎标  签 短片 | 意大利 | FedericoFellini | Federico-Fellini | 2003 | Shorts | 费里尼 | 费德里科·费里尼

◎简  介

  A series of television parodies directed by Federico Fellini in the first three weeks of filming for his film "Ginger e Fred" in February and March 1985. Unused in the final edit, they have been collated and edited by Tatti Sanguinetti.
Video
ID             : 1
Format           : AVC
Format/Info          : Advanced Video Codec
Format profile         :
Format settings        : CABAC / 4 Ref Frames
Format settings, CABAC       : Yes
Format settings, Reference frames  : 4 frames
Codec ID           : V_MPEG4/ISO/AVC
Duration           : 35 min 14 s
Bit rate           : 9 266 kb/s
Width            : 1 856 pixels
Height           : 1 080 pixels
Display aspect ratio       : 1.719
Frame rate mode        : Constant
Frame rate           : 25.000 FPS
Color space          : YUV
Chroma subsampling       : 4:2:0
Bit depth          : 8 bits
Scan type          : Progressive
Bits/(Pixel*Frame)       : 0.185
Stream size          : 2.28 GiB (98%)
Writing library        : x264 core 164 r3075 66a5bc1
Encoding settings        : cabac=1 / ref=4 / deblock=1:-3:-3 / analyse=0x3:0x133 / me=umh / subme=10 / psy=1 / psy_rd=1.00:0.15 / mixed_ref=1 / me_range=24 / chroma_me=1 / trellis=2 / 8x8dct=1 / cqm=0 / deadzone=21,11 / fast_pskip=1 / chroma_qp_offset=-3 / threads=18 / lookahead_threads=3 / sliced_threads=0 / nr=0 / decimate=1 / interlaced=0 / bluray_compat=0 / constrained_intra=0 / bframes=8 / b_pyramid=2 / b_adapt=2 / b_bias=0 / direct=3 / weightb=1 / open_gop=0 / weightp=2 / keyint=250 / keyint_min=25 / scenecut=40 / intra_refresh=0 / rc_lookahead=60 / rc=crf / mbtree=1 / crf=17.5 / qcomp=0.60 / qpmin=0 / qpmax=69 / qpstep=4 / ip_ratio=1.40 / aq=3:0.50
Language           : English
Default            : Yes
Forced           : No

Audio
ID             : 2
Format           : AC-3
Format/Info          : Audio Coding 3
Commercial name        : Dolby Digital
Codec ID           : A_AC3
Duration           : 35 min 14 s
Bit rate mode          : Constant
Bit rate           : 192 kb/s
Channel(s)           : 2 channels
Channel layout         : L R
Sampling rate          : 48.0 kHz
Frame rate           : 31.250 FPS (1536 SPF)
Compression mode         : Lossy
Stream size          : 48.4 MiB (2%)
Language           : Italian
Service kind         : Complete Main
Default            : Yes
Forced           : No

Text #1
ID             : 3
Format           : UTF-8
Codec ID           : S_TEXT/UTF8
Codec ID/Info          : UTF-8 Plain Text
Duration           : 33 min 42 s
Bit rate           : 48 b/s
Count of elements        : 355
Stream size          : 12.0 KiB (0%)
Title            : English
Language           : English
Default            : Yes
Forced           : Yes

Text #2
ID             : 4
Format           : PGS
Muxing mode          : zlib
Codec ID           : S_HDMV/PGS
Codec ID/Info          : Picture based subtitle format used on BDs/HD-DVDs
Duration           : 33 min 42 s
Bit rate           : 7 088 b/s
Count of elements        : 710
Stream size          : 1.71 MiB (0%)
Title            : English
Language           : English
Default            : No
Forced           : No






                                                                  
                                                                                                                                                                                                                                                                                 
b54d1fd59c7d8783d465de4af8f536be.torrent (24.04 KB)

回复

使用道具 举报

百度云电影论坛 ( 辽ICP备17019482号-3 )

本网站所有资源来自网络,如无意中侵犯了您的权益,请发邮件至 [email protected],立即清除相关链接

GMT+8, 2023-1-28 12:23 , Processed in 0.067450 second(s), 33 queries .

Powered by Discuz! X3.2

© 2001-2013 Comsenz Inc.

快速回复 返回顶部 返回列表