百度云电影论坛

 找回密码
 立即注册

反败为胜 Necessary.Roughness.1991.1080p.BluRay.x264.DTS-FGT 9.83GB

[复制链接]

admin 发表于 2021-10-16 16:00:42 | 显示全部楼层 |阅读模式
反败为胜 Necessary.Roughness.1991.1080p.BluRay.x264.DTS-FGT 9.83GB                                                                                                                                                                              -->
帖子完整标题:反败为胜 Necessary.Roughness.1991.1080p.BluRay.x264.DTS-FGT 9.83GB





◎译  名 反败为胜
◎片  名 Necessary Roughness
◎年  代 1991
◎产  地 美国
◎类  别 喜剧 / 运动
◎语  言 英语
◎上映日期 1991-09-27
◎豆瓣评分 /10 from 0 users
◎ 
◎片  长 108 分钟
◎导  演 斯坦·瑞格帝 Stan Dragoti
◎主  演 Jim Kelly Jim Kelly
     Ed 'Too Tall' Jones Ed 'Too Tall' Jones
     哈莉·简·科扎克 Harley Jane Kozak
     马库斯·吉亚马蒂 Marcus Giamatti
     H. Bud Otto H. Bud Otto
     Randy Tallman Randy Tallman
     伊万德·霍利菲尔德 Evander Holyfield
     Herschel Walker Herschel Walker
     Randy White Randy White
     Angela Gair Angela Gair
      Michael E. Perry
     阿兰·格拉夫 Allan Graf
     John Venable John Venable
     克里斯·伯曼 Chris Berman
     Lee Gideon Lee Gideon
     本·戴维森 Ben Davidson
     埃克托尔·埃利松多 Hector Elizondo
     凯茜·爱兰 Kathy Ireland
     拉里·米勒 Larry Miller
     斯科特·巴库拉 Scott Bakula
     Spencer Prokop Spencer Prokop
     弗雷德·多尔顿·汤普森 Fred Dalton Thompson
     安德鲁·劳厄尔 Andrew Lauer
     罗伯特·劳吉亚 Robert Loggia
     杰森·贝特曼 Jason Bateman
     罗伯·施奈德 Rob Schneider
     Sinbad Sinbad
     David Black David Black
     迈克尔·多兰 Michael Dolan
     Steven Derek Steven Derek
     Tony Dorsett Tony Dorsett
     罗杰·克雷格 Roger Craig
     Earl Campbell Earl Campbell
     达里尔·考克斯 Darryl Cox
     迪克·布特库斯 Dick Butkus
     杰瑞·赖斯 Jerry Rice
     路易·曼迪勒 Louis Mandylor
     安德鲁·布莱尼亚斯基 Andrew Bryniarski

◎标  签 美国 | 电影 | 体育 | 要看的电影 | 喜剧 | ScottBakula | 1991 | 美国电影

◎简  介

  根据美国大学体育协会的规定,德州州立大学被迫组成一支橄榄球队,由于没有奖学金的支持,愿意加入橄榄球队的学生少的可怜。这个临时成军的球队,由34岁的四分卫领军,他发现自己的球员,都是对橄榄球徒有狂热,没有概念的阿达球员,后卫球员将每一场比赛都视为战斗,中卫球员深受金钱问题困扰,前锋球员有的以日本武士道精神打球,有的则是蛮横的牛仔,更糟的是,踢球员是一个女生,中锋球员还爱上了她!这一群菜鸟球员是否有机会反败为胜呢?
Video
ID             : 1
Format           : AVC
Format/Info          : Advanced Video Codec
Format profile         :
Format settings        : CABAC / 4 Ref Frames
Format settings, CABAC       : Yes
Format settings, Reference frames  : 4 frames
Codec ID           : V_MPEG4/ISO/AVC
Duration           : 1 h 48 min
Bit rate           : 11.5 Mb/s
Width            : 1 920 pixels
Height           : 1 080 pixels
Display aspect ratio       : 16:9
Frame rate mode        : Constant
Frame rate           : 23.976 (24000/1001/189150) FPS
Color space          : YUV
Chroma subsampling       : 4:2:0
Bit depth          : 8 bits
Scan type          : Progressive
Bits/(Pixel*Frame)       : 0.231
Stream size          : 8.69 GiB (88%)
Writing library        : x264 core 148 r2795M aaa9aa8
Encoding settings        : cabac=1 / ref=4 / deblock=1:-2:-2 / analyse=0x3:0x113 / me=umh / subme=9 / psy=1 / psy_rd=1.00:0.15 / mixed_ref=1 / me_range=16 / chroma_me=1 / trellis=2 / 8x8dct=1 / cqm=0 / deadzone=21,11 / fast_pskip=1 / chroma_qp_offset=-3 / threads=72 / lookahead_threads=3 / sliced_threads=0 / nr=0 / decimate=1 / interlaced=0 / bluray_compat=0 / constrained_intra=0 / bframes=3 / b_pyramid=2 / b_adapt=1 / b_bias=0 / direct=3 / weightb=1 / open_gop=0 / weightp=2 / keyint=250 / keyint_min=25 / scenecut=40 / intra_refresh=0 / rc_lookahead=50 / rc=2pass / mbtree=1 / bitrate=11500 / ratetol=1.0 / qcomp=0.60 / qpmin=0 / qpmax=69 / qpstep=4 / cplxblur=20.0 / qblur=0.5 / vbv_maxrate=31250 / vbv_bufsize=31250 / nal_hrd=none / filler=0 / ip_ratio=1.40 / aq=1:1.00
Language           : English
Default            : Yes
Forced           : No

Audio
ID             : 2
Format           : DTS
Format/Info          : Digital Theater Systems
Codec ID           : A_DTS
Duration           : 1 h 48 min
Bit rate mode          : Constant
Bit rate           : 1 509 kb/s
Channel(s)           : 6 channels
Channel layout         : C L R Ls Rs LFE
Sampling rate          : 48.0 kHz
Frame rate           : 93.750 FPS (512 SPF)
Bit depth          : 24 bits
Compression mode         : Lossy
Stream size          : 1.14 GiB (12%)
Language           : English
Default            : Yes
Forced           : No

Text
ID             : 3
Format           : UTF-8
Codec ID           : S_TEXT/UTF8
Codec ID/Info          : UTF-8 Plain Text
Duration           : 1 h 42 min
Bit rate           : 54 b/s
Count of elements        : 1106
Stream size          : 41.3 KiB (0%)
Language           : English
Default            : Yes
Forced           : No

Menu
00:00:00.000         : Warm Up
00:06:46.323         : Tryouts
00:13:22.218         : New Recruit
00:18:20.725         : Bad Reception
00:26:21.914         : Eligibility
00:35:58.323         : Opening Game
00:44:21.158         : Scrimmage
00:57:15.140         : New Kicker
01:04:34.621         : Showers
01:11:30.661         : Pass Or Fail
01:20:33.829         : Playbook
01:29:59.394         : Pep Talk
01:34:26.786         : Fumblaya
01:40:43.329         : Extra Point
01:44:19.587         : Line-Up

[/url]

[/url]

[/url]




                                                                  
                                                                                                                                                                                                                                                                                 
2ca52792eb58ea1f4cad31123a7aca8b.torrent (25.21 KB)

回复

使用道具 举报

百度云电影论坛 ( 辽ICP备17019482号-3 )

本网站所有资源来自网络,如无意中侵犯了您的权益,请发邮件至 [email protected],立即清除相关链接

GMT+8, 2023-1-28 11:53 , Processed in 0.060925 second(s), 29 queries .

Powered by Discuz! X3.2

© 2001-2013 Comsenz Inc.

快速回复 返回顶部 返回列表