百度云电影论坛

 找回密码
 立即注册

浪荡岁月 Vitellonismo.2004.1080p.BluRay.x264-BiPOLAR 1.55GB

[复制链接]

admin 发表于 2021-10-16 16:00:42 | 显示全部楼层 |阅读模式
浪荡岁月 Vitellonismo.2004.1080p.BluRay.x264-BiPOLAR 1.55GB                                                                                                                                                                              -->
帖子完整标题:浪荡岁月 Vitellonismo.2004.1080p.BluRay.x264-BiPOLAR 1.55GB





◎译  名 浪荡岁月
◎片  名 Vitellonismo
◎年  代 2004
◎产  地 美国,意大利
◎类  别 纪录片 / 短片
◎语  言 意大利语,英语
◎上映日期 2004
◎豆瓣评分 /10 from 0 users
◎ 

◎标  签 费德里科·费里尼 | 纪录片 | 意大利 | 费里尼 | 花絮 | 美国 | 短片 | 浪荡儿

◎简  介

  暂无相关剧情介绍
Video
ID             : 1
Format           : AVC
Format/Info          : Advanced Video Codec
Format profile         :
Format settings        : CABAC / 5 Ref Frames
Format settings, CABAC       : Yes
Format settings, Reference frames  : 5 frames
Codec ID           : V_MPEG4/ISO/AVC
Duration           : 35 min 11 s
Bit rate           : 6 113 kb/s
Width            : 1 442 pixels
Height           : 1 080 pixels
Display aspect ratio       : 4:3
Frame rate mode        : Constant
Frame rate           : 59.940 (60000/1001/189150) FPS
Color space          : YUV
Chroma subsampling       : 4:2:0
Bit depth          : 8 bits
Scan type          : Progressive
Bits/(Pixel*Frame)       : 0.065
Stream size          : 1.50 GiB (97%)
Writing library        : x264 core 164 r3075 66a5bc1
Encoding settings        : cabac=1 / ref=5 / deblock=1:-3:-3 / analyse=0x3:0x133 / me=umh / subme=10 / psy=1 / psy_rd=1.00:0.15 / mixed_ref=1 / me_range=24 / chroma_me=1 / trellis=2 / 8x8dct=1 / cqm=0 / deadzone=21,11 / fast_pskip=1 / chroma_qp_offset=-3 / threads=18 / lookahead_threads=3 / sliced_threads=0 / nr=0 / decimate=1 / interlaced=0 / bluray_compat=0 / constrained_intra=0 / bframes=8 / b_pyramid=2 / b_adapt=2 / b_bias=0 / direct=3 / weightb=1 / open_gop=0 / weightp=2 / keyint=599 / keyint_min=59 / scenecut=40 / intra_refresh=0 / rc_lookahead=60 / rc=crf / mbtree=1 / crf=17.0 / qcomp=0.60 / qpmin=0 / qpmax=69 / qpstep=4 / ip_ratio=1.40 / aq=3:0.60
Language           : English
Default            : Yes
Forced           : No

Audio
ID             : 2
Format           : AC-3
Format/Info          : Audio Coding 3
Commercial name        : Dolby Digital
Codec ID           : A_AC3
Duration           : 35 min 11 s
Bit rate mode          : Constant
Bit rate           : 192 kb/s
Channel(s)           : 1 channel
Channel layout         : C
Sampling rate          : 48.0 kHz
Frame rate           : 31.250 FPS (1536 SPF)
Compression mode         : Lossy
Stream size          : 48.3 MiB (3%)
Language           : Italian
Service kind         : Complete Main
Default            : Yes
Forced           : No

Text #1
ID             : 3
Format           : UTF-8
Codec ID           : S_TEXT/UTF8
Codec ID/Info          : UTF-8 Plain Text
Duration           : 33 min 46 s
Bit rate           : 94 b/s
Count of elements        : 529
Stream size          : 23.4 KiB (0%)
Title            : English
Language           : English
Default            : Yes
Forced           : Yes

Text #2
ID             : 4
Format           : PGS
Muxing mode          : zlib
Codec ID           : S_HDMV/PGS
Codec ID/Info          : Picture based subtitle format used on BDs/HD-DVDs
Duration           : 33 min 46 s
Bit rate           : 12.7 kb/s
Count of elements        : 1058
Stream size          : 3.06 MiB (0%)
Title            : English
Language           : English
Default            : No
Forced           : No






                                                                  
                                                                                                                                                                                                                                                                                 
bc11f810a93c221cb8aa753032b98256.torrent (16.26 KB)

回复

使用道具 举报

百度云电影论坛 ( 辽ICP备17019482号-3 )

本网站所有资源来自网络,如无意中侵犯了您的权益,请发邮件至 [email protected],立即清除相关链接

GMT+8, 2023-1-28 11:52 , Processed in 0.063052 second(s), 33 queries .

Powered by Discuz! X3.2

© 2001-2013 Comsenz Inc.

快速回复 返回顶部 返回列表