百度云电影论坛

 找回密码
 立即注册

绝对复仇/复仇飚花 Sworn.to.Justice.1996.720p.BluRay.x264-GUACAMOLE 2....

[复制链接]

帖子完整标题:绝对复仇/复仇飚花 Sworn.to.Justice.1996.720p.BluRay.x264-GUACAMOLE 2.33GB



[/url]

◎译  名 绝对复仇/复仇飚花
◎片  名 Sworn to Justice
◎年  代 1996
◎产  地 美国
◎类  别 剧情 / 动作
◎语  言 英语
◎上映日期 1997-02-11
◎IMDb评分  5/10 from 546 users
◎片  长 97 分钟
◎编  剧 Robert Easter
◎主  演 麦克斯·丹尼尔斯 Max Daniels
       唐娜·伊凡斯 Donna Evans
       Kevin Knotts
       达林·普雷斯科特 Darrin Prescott
       Max Thayer
       Robn Meeks
       Kurt McKinney
       Gwendolyn Mitchell
       Eric Lee
       托尼·洛·比安科 Tony Lo Bianco
       马库斯·杨 Marcus Young
       布拉德·道里夫 Brad Dourif
       罗芙洛 Cynthia Rothrock
       岩松信 Makoto Iwamatsu
       斯蒂芬·卡德罗斯 Stephen Quadros
       沃尔特·凯尼格 Walter Koenig
       皮埃尔·杜拉特 Pierre Dulat
       玛丽-玛格丽特·休姆斯 Mary-Margaret Humes
       Desi Singh

◎标  签 美国 | 罗芙洛 | 动作 | 1997 | 剧情 | 美国电影 | 杀人放火 | 4

◎简  介

  琼娜是一位美艳性感的心理医生,在一次出差返家之后,琼娜的家中竟然闯入一个来路不明的蒙面客,虽然她奋力地与对方作殊死战,但是很不幸地,仍然挽救不了姊姊和侄儿的性命。不过,不幸中的大幸是,琼娜在历经了九死一生后,逃出歹徒的攻击。但是她的头部也因此受到严重的创伤,而被送入医院。出院后,琼娜在一位年轻律师库克的帮助下,打算出庭作证,找出杀害她家人的凶手,可是,丧亲之痛与暴徒的阴影却一直在她心中挥之不去。随着情况的日益严重,这场悲剧竟使得琼娜开始出现幻觉,频频见到一些未曾出现的血腥场面……
Video
ID                                       : 1
Format                                   : AVC
Format/Info                              : Advanced Video Codec
Format profile                           :
Format settings                          : CABAC / 8 Ref Frames
Format settings, CABAC                   : Yes
Format settings, Reference frames        : 8 frames
Codec ID                                 : V_MPEG4/ISO/AVC
Duration                                 : 1 h 37 min
Bit rate                                 : 2 834 kb/s
Width                                    : 1 280 pixels
Height                                   : 720 pixels
Display aspect ratio                     : 16:9
Frame rate mode                          : Constant
Frame rate                               : 23.976 (24000/1001/189150) FPS
Color space                              : YUV
Chroma subsampling                       : 4:2:0
Bit depth                                : 8 bits
Scan type                                : Progressive
Bits/(Pixel*Frame)                       : 0.128
Stream size                              : 1.93 GiB (83%)
Writing library                          : x264 core 161 r3048 b86ae3c
Encoding settings                        : cabac=1 / ref=8 / deblock=1:-3:-3 / analyse=0x3:0x133 / me=umh / subme=9 / psy=1 / psy_rd=1.00:0.00 / mixed_ref=1 / me_range=16 / chroma_me=1 / trellis=2 / 8x8dct=1 / cqm=0 / deadzone=21,11 / fast_pskip=0 / chroma_qp_offset=-2 / threads=22 / lookahead_threads=1 / sliced_threads=0 / nr=0 / decimate=1 / interlaced=0 / bluray_compat=0 / constrained_intra=0 / bframes=3 / b_pyramid=2 / b_adapt=2 / b_bias=0 / direct=3 / weightb=1 / open_gop=0 / weightp=2 / keyint=250 / keyint_min=23 / scenecut=40 / intra_refresh=0 / rc_lookahead=60 / rc=crf / mbtree=1 / crf=17.0 / qcomp=0.60 / qpmin=0 / qpmax=69 / qpstep=4 / ip_ratio=1.40 / aq=3:0.60
Default                                  : Yes
Forced                                   : No
Color range                              : Limited
Matrix coefficients                      : BT.709

Audio
ID                                       : 2
Format                                   : FLAC
Format/Info                              : Free Lossless Audio Codec
Codec ID                                 : A_FLAC
Duration                                 : 1 h 37 min
Bit rate mode                            : Variable
Bit rate                                 : 569 kb/s
Channel(s)                               : 2 channels
Channel layout                           : L R
Sampling rate                            : 48.0 kHz
Frame rate                               : 11.719 FPS (4096 SPF)
Bit depth                                : 16 bits
Compression mode                         : Lossless
Stream size                              : 396 MiB (17%)
Writing library                          : libFLAC 1.2.1 (UTC 2007-09-17)
Language                                 : English
Default                                  : Yes
Forced                                   : No

Text #1
ID                                       : 3
Format                                   : PGS
Muxing mode                              : zlib
Codec ID                                 : S_HDMV/PGS
Codec ID/Info                            : Picture based subtitle format used on BDs/HD-DVDs
Duration                                 : 1 h 30 min
Bit rate                                 : 22.0 kb/s
Count of elements                        : 1637
Stream size                              : 14.2 MiB (1%)
Title                                    : Vobsubs
Language                                 : English
Default                                  : No
Forced                                   : No

Text #2
ID                                       : 4
Format                                   : PGS
Muxing mode                              : zlib
Codec ID                                 : S_HDMV/PGS
Codec ID/Info                            : Picture based subtitle format used on BDs/HD-DVDs
Duration                                 : 1 h 30 min
Bit rate                                 : 21.4 kb/s
Count of elements                        : 1622
Stream size                              : 13.8 MiB (1%)
Title                                    : Vobsubs
Language                                 : German
Default                                  : No
Forced                                   : No

Menu
00:00:00.000                             : en:00:00:00.000
00:08:03.483                             : en:00:08:03.483
00:16:04.964                             : en:00:16:04.964
00:24:50.489                             : en:00:24:50.489
00:32:30.949                             : en:00:32:30.949
00:38:27.305                             : en:00:38:27.305
00:50:27.024                             : en:00:50:27.024
00:56:29.386                             : en:00:56:29.386
01:04:20.857                             : en:01:04:20.857
01:12:03.319                             : en:01:12:03.319
01:21:39.895                             : en:01:21:39.895
01:29:29.364                             : en:01:29:29.364

[/url]



                                                                                                                                                                                                        
                                                                                                                                                                                                                                                                                                                                                                                                                                                                                                                                                                                                                                                                                                                                                                                                                                                        
d85c686cc02e8ad6c44202a2299c788d.zip (23.98 KB)

回复

使用道具 举报

百度云电影论坛 ( 辽ICP备17019482号-3 )

本网站所有资源来自网络,如无意中侵犯了您的权益,请发邮件至 [email protected],立即清除相关链接

GMT+8, 2021-3-3 18:40 , Processed in 0.105521 second(s), 22 queries .

Powered by Discuz! X3.2

© 2001-2013 Comsenz Inc.

快速回复 返回顶部 返回列表