百度云电影论坛

 找回密码
 立即注册

浩劫余波 The.Aftermath.1982.720p.BluRay.x264-GUACAMOLE 4.66GB

[复制链接]

百度云电影 发表于 2021-2-24 07:16:33 | 显示全部楼层 |阅读模式
-->
帖子完整标题:浩劫余波 The.Aftermath.1982.720p.BluRay.x264-GUACAMOLE 4.66GB



[/url]

◎译  名 浩劫余波
◎片  名 the aftermath
◎年  代 1982
◎产  地 美国
◎类  别 动作 / 科幻 / 惊悚
◎语  言 英语
◎上映日期 1982
◎IMDb评分  4.3/10 from 621 users
◎IMDb链接  
◎豆瓣评分 /10 from 0 users
◎豆瓣链接 
◎片  长 95 分钟
◎导  演 Steve Barkett
◎编  剧 Steve Barkett / Stanley Livingston
◎主  演 丹尼斯·斯科塔克 Dennis Skotak
       希德·黑格 Sid Haig
       迪克·米勒 Dick Miller
       吉姆·丹弗斯 Jim Danforth
       Lynne Margulies
       福里斯特·J·阿克曼 Forrest J. Ackerman
       Vincent Barbi
       Steve Barkett
       罗伯特·斯科塔克 Robert Skotak

◎标  签 科幻 | 丧尸 | 恐怖 | 动作 | 行尸 | 老片 | 美国电影 | 美国

◎简  介

  一群宇航员在宇宙中执行了多年任务,返航时飞船却发生了故障,迫降在地球的海面上,很快,他们惊奇地发现,地球已经变得残破不堪,城市成为了一片废墟,而且他们在寻找幸存者时竟遭到食人丧尸的袭击。原来在他们离开地球的一段时间里一种致命病毒蔓延了整个大气层使人们死亡变异,现在他们要面对的,是如何在丧尸的包围圈中杀出一条生路……
  
  八十年代的经典科幻丧尸片,特效做的非常精彩,尤其是变成废墟的城市非常具有视觉冲击力。可惜的是,片子情节潦草,拍摄效果过于简陋,演员表演不到位等都是片子的硬伤,如果导演能在这方面下点功夫的话这将是一部非常杰出的作品。
Video
ID                                       : 1
Format                                   : AVC
Format/Info                              : Advanced Video Codec
Format profile                           :
Format settings                          : CABAC / 8 Ref Frames
Format settings, CABAC                   : Yes
Format settings, Reference frames        : 8 frames
Codec ID                                 : V_MPEG4/ISO/AVC
Duration                                 : 1 h 34 min
Bit rate                                 : 6 475 kb/s
Width                                    : 1 280 pixels
Height                                   : 720 pixels
Display aspect ratio                     : 16:9
Frame rate mode                          : Constant
Frame rate                               : 23.976 (24000/1001/189150) FPS
Color space                              : YUV
Chroma subsampling                       : 4:2:0
Bit depth                                : 8 bits
Scan type                                : Progressive
Bits/(Pixel*Frame)                       : 0.293
Stream size                              : 4.29 GiB (92%)
Writing library                          : x264 core 161 r3048 b86ae3c
Encoding settings                        : cabac=1 / ref=8 / deblock=1:-3:-3 / analyse=0x3:0x133 / me=umh / subme=9 / psy=1 / psy_rd=1.00:0.00 / mixed_ref=1 / me_range=16 / chroma_me=1 / trellis=2 / 8x8dct=1 / cqm=0 / deadzone=21,11 / fast_pskip=0 / chroma_qp_offset=-2 / threads=22 / lookahead_threads=1 / sliced_threads=0 / nr=0 / decimate=1 / interlaced=0 / bluray_compat=0 / constrained_intra=0 / bframes=3 / b_pyramid=2 / b_adapt=2 / b_bias=0 / direct=3 / weightb=1 / open_gop=0 / weightp=2 / keyint=250 / keyint_min=23 / scenecut=40 / intra_refresh=0 / rc_lookahead=60 / rc=crf / mbtree=1 / crf=18.0 / qcomp=0.60 / qpmin=0 / qpmax=69 / qpstep=4 / ip_ratio=1.40 / aq=3:0.60
Default                                  : Yes
Forced                                   : No
Color range                              : Limited
Matrix coefficients                      : BT.709

Audio #1
ID                                       : 2
Format                                   : AC-3
Format/Info                              : Audio Coding 3
Commercial name                          : Dolby Digital
Codec ID                                 : A_AC3
Duration                                 : 1 h 34 min
Bit rate mode                            : Constant
Bit rate                                 : 448 kb/s
Channel(s)                               : 6 channels
Channel layout                           : L R C LFE Ls Rs
Sampling rate                            : 48.0 kHz
Frame rate                               : 31.250 FPS (1536 SPF)
Compression mode                         : Lossy
Stream size                              : 304 MiB (6%)
Language                                 : English
Service kind                             : Complete Main
Default                                  : Yes
Forced                                   : No

Audio #2
ID                                       : 3
Format                                   : AAC LC
Format/Info                              : Advanced Audio Codec Low Complexity
Codec ID                                 : A_AAC-2
Duration                                 : 1 h 34 min
Bit rate                                 : 104 kb/s
Channel(s)                               : 2 channels
Channel layout                           : L R
Sampling rate                            : 48.0 kHz
Frame rate                               : 46.875 FPS (1024 SPF)
Compression mode                         : Lossy
Delay relative to video                  : 9 ms
Stream size                              : 70.3 MiB (1%)
Title                                    : Comentary with Steve Barkett
Language                                 : English
Default                                  : No
Forced                                   : No

Text #1
ID                                       : 4
Format                                   : PGS
Muxing mode                              : zlib
Codec ID                                 : S_HDMV/PGS
Codec ID/Info                            : Picture based subtitle format used on BDs/HD-DVDs
Duration                                 : 1 h 34 min
Bit rate                                 : 13.1 kb/s
Count of elements                        : 841
Stream size                              : 8.89 MiB (0%)
Title                                    : Vobsubs
Language                                 : German
Default                                  : No
Forced                                   : No

Text #2
ID                                       : 5
Format                                   : PGS
Muxing mode                              : zlib
Codec ID                                 : S_HDMV/PGS
Codec ID/Info                            : Picture based subtitle format used on BDs/HD-DVDs
Duration                                 : 1 h 34 min
Bit rate                                 : 342 b/s
Count of elements                        : 25
Stream size                              : 238 KiB (0%)
Title                                    : Forced
Language                                 : German
Default                                  : No
Forced                                   : No

Text #3
ID                                       : 6
Format                                   : PGS
Muxing mode                              : zlib
Codec ID                                 : S_HDMV/PGS
Codec ID/Info                            : Picture based subtitle format used on BDs/HD-DVDs
Duration                                 : 1 h 34 min
Bit rate                                 : 41.2 kb/s
Count of elements                        : 2645
Stream size                              : 27.9 MiB (1%)
Title                                    : Comentary with Steve Barkett
Language                                 : German
Default                                  : No
Forced                                   : No

Menu
00:00:00.000                             : en:00:00:00.000
00:00:00.375                             : en:00:00:00.375
00:13:26.764                             : en:00:13:26.764
00:30:07.848                             : en:00:30:07.848
00:45:00.156                             : en:00:45:00.156
00:59:35.447                             : en:00:59:35.447
01:11:58.022                             : en:01:11:58.022
01:21:14.995                             : en:01:21:14.995
01:32:59.866                             : en:01:32:59.866

[/url]



                                                                                                                                                                                                        
                                                                                                                                                                                                                                                                                                                                                                                                                                                                                                                                                                                                                                                                                                                                                                                                                                                        
df9c639828416e194bb6724ef943e658.zip (47.32 KB)

回复

使用道具 举报

百度云电影论坛 ( 辽ICP备17019482号-3 )

本网站所有资源来自网络,如无意中侵犯了您的权益,请发邮件至 [email protected],立即清除相关链接

GMT+8, 2021-3-5 12:53 , Processed in 0.092778 second(s), 22 queries .

Powered by Discuz! X3.2

© 2001-2013 Comsenz Inc.

快速回复 返回顶部 返回列表