百度云电影论坛

 找回密码
 立即注册

要敌 Archenemy.2020.720p.BluRay.x264-PiGNUS 3.56GB

[复制链接]

-->
帖子完整标题:要敌 Archenemy.2020.720p.BluRay.x264-PiGNUS 3.56GB



[/url]

◎译  名 要敌
◎片  名 Archenemy
◎年  代 2020
◎产  地 美国
◎类  别 动作 / 冒险
◎上映日期 2020-12-11(美国)
◎IMDb评分  5/10 from 1353 users
◎IMDb链接  
◎豆瓣评分 4.6/10 from 69 users
◎豆瓣链接 
◎导  演 亚当·埃及·摩提莫 Adam Egypt Mortimer
◎编  剧 亚当·埃及·摩提莫 Adam Egypt Mortimer
◎主  演 乔·曼根尼罗 Joe Manganiello
       格伦·豪尔顿 Glenn Howerton
       约瑟夫·D·雷特曼 Joseph D. Reitman
       麦克·勃兰特 Mac Brandt
       基兰·加拉赫 Kieran Gallagher
       克里斯托弗·盖顿 Christopher Guyton

◎标  签 动作 | 美国 | 2020 | 电影 | 乔·曼根尼罗 | 美国电影 | 剧情 | 冒险

◎简  介

  乔·曼根尼罗将主演动作冒险影片[要敌](Archenemy,暂译),Adam Egypt Mortimer([丹尼尔不是真的])自编自导。影片故事讲述麦克斯·费斯特(Max Fist)自称自己是来自另一个维度的超级英雄,他穿越时空跌落到了地球上,在地球上的他无法施展超能力。没人相信他的故事,只有一个叫“仓鼠”的少年相信他的话。他们一起走上街头,消灭当地的毒品集团及名为“经理”的犯罪头目。
Video
ID                                       : 1
Format                                   : AVC
Format/Info                              : Advanced Video Codec
Format profile                           :
Format settings                          : CABAC / 8 Ref Frames
Format settings, CABAC                   : Yes
Format settings, Reference frames        : 8 frames
Codec ID                                 : V_MPEG4/ISO/AVC
Duration                                 : 1 h 30 min
Bit rate                                 : 4 985 kb/s
Width                                    : 1 280 pixels
Height                                   : 536 pixels
Display aspect ratio                     : 2.40:1
Frame rate mode                          : Constant
Frame rate                               : 23.976 (24000/1001/189150) FPS
Color space                              : YUV
Chroma subsampling                       : 4:2:0
Bit depth                                : 8 bits
Scan type                                : Progressive
Bits/(Pixel*Frame)                       : 0.303
Stream size                              : 3.14 GiB (88%)
Writing library                          : x264 core 161 r3043 59c0609
Encoding settings                        : cabac=1 / ref=8 / deblock=1:-3:-3 / analyse=0x3:0x133 / me=umh / subme=9 / psy=1 / psy_rd=1.00:0.00 / mixed_ref=1 / me_range=16 / chroma_me=1 / trellis=2 / 8x8dct=1 / cqm=0 / deadzone=21,11 / fast_pskip=1 / chroma_qp_offset=-2 / threads=17 / lookahead_threads=1 / sliced_threads=0 / nr=0 / decimate=1 / interlaced=0 / bluray_compat=0 / constrained_intra=0 / bframes=3 / b_pyramid=2 / b_adapt=2 / b_bias=0 / direct=3 / weightb=1 / open_gop=0 / weightp=2 / keyint=250 / keyint_min=23 / scenecut=40 / intra_refresh=0 / rc_lookahead=60 / rc=crf / mbtree=1 / crf=16.0 / qcomp=0.60 / qpmin=0 / qpmax=69 / qpstep=4 / ip_ratio=1.40 / aq=1:1.00
Default                                  : Yes
Forced                                   : No

Audio
ID                                       : 2
Format                                   : AC-3
Format/Info                              : Audio Coding 3
Commercial name                          : Dolby Digital
Codec ID                                 : A_AC3
Duration                                 : 1 h 30 min
Bit rate mode                            : Constant
Bit rate                                 : 640 kb/s
Channel(s)                               : 6 channels
Channel layout                           : L R C LFE Ls Rs
Sampling rate                            : 48.0 kHz
Frame rate                               : 31.250 FPS (1536 SPF)
Compression mode                         : Lossy
Stream size                              : 413 MiB (11%)
Language                                 : English
Service kind                             : Complete Main
Default                                  : Yes
Forced                                   : No

Text #1
ID                                       : 3
Format                                   : PGS
Muxing mode                              : zlib
Codec ID                                 : S_HDMV/PGS
Codec ID/Info                            : Picture based subtitle format used on BDs/HD-DVDs
Duration                                 : 1 h 22 min
Bit rate                                 : 23.2 kb/s
Count of elements                        : 2276
Stream size                              : 13.7 MiB (0%)
Title                                    : English SDH
Language                                 : English
Default                                  : No
Forced                                   : No

Text #2
ID                                       : 4
Format                                   : PGS
Muxing mode                              : zlib
Codec ID                                 : S_HDMV/PGS
Codec ID/Info                            : Picture based subtitle format used on BDs/HD-DVDs
Duration                                 : 1 h 22 min
Bit rate                                 : 20.8 kb/s
Count of elements                        : 2092
Stream size                              : 12.2 MiB (0%)
Title                                    : Spanish
Language                                 : Spanish
Default                                  : No
Forced                                   : No

Text #3
ID                                       : 5
Format                                   : PGS
Muxing mode                              : zlib
Codec ID                                 : S_HDMV/PGS
Codec ID/Info                            : Picture based subtitle format used on BDs/HD-DVDs
Duration                                 : 1 h 22 min
Bit rate                                 : 21.0 kb/s
Count of elements                        : 2052
Stream size                              : 12.3 MiB (0%)
Title                                    : French
Language                                 : French
Default                                  : No
Forced                                   : No

Menu
00:00:00.000                             : en:Chapter 01
00:05:50.100                             : en:Chapter 02
00:18:24.145                             : en:Chapter 03
00:33:48.401                             : en:Chapter 04
00:50:08.923                             : en:Chapter 05
01:04:28.990                             : en:Chapter 06
01:10:16.963                             : en:Chapter 07
01:23:27.669                             : en:Chapter 08
01:30:15.410                             : en:Chapter 09

[/url]



                                                                                                                                                                                                        
                                                                                                                                                                                                                                                                                                                                                                                                                                                                                                                                                                                                                                                                                                                                                                                                                                                        
7e14548d3258a616bcc4de32fc7f0d4e.zip (36.29 KB)

回复

使用道具 举报

百度云电影论坛 ( 辽ICP备17019482号-3 )

本网站所有资源来自网络,如无意中侵犯了您的权益,请发邮件至 [email protected],立即清除相关链接

GMT+8, 2021-3-3 20:26 , Processed in 0.116159 second(s), 22 queries .

Powered by Discuz! X3.2

© 2001-2013 Comsenz Inc.

快速回复 返回顶部 返回列表