百度云电影论坛

 找回密码
 立即注册

美丽比一比/温柔陷阱 Drop.Dead.Gorgeous.1999.720p.BluRay.x264-VETO 5....

[复制链接]

-->
帖子完整标题:美丽比一比/温柔陷阱 Drop.Dead.Gorgeous.1999.720p.BluRay.x264-VETO 5.47GB



[/url]

◎译  名 美丽比一比/温柔陷阱/温柔陷阱/温柔陷阱/温柔陷阱/温柔陷阱
◎片  名 Drop Dead Gorgeous
◎年  代 1999
◎产  地 美国,德国
◎类  别 喜剧
◎语  言 英语
◎上映日期 1999-07-09
◎IMDb评分  6.6/10 from 32609 users
◎IMDb链接  
◎豆瓣评分 6.6/10 from 262 users
◎豆瓣链接 
◎片  长 97 分钟
◎导  演 迈克尔·帕特里克·詹恩 Michael Patrick Jann
◎编  剧 洛纳·威廉姆斯 Lona Williams
◎主  演 克斯汀·邓斯特 Kirsten Dunst
       艾伦·巴金 Ellen Barkin
       艾莉森·珍妮 Allison Janney
       丹妮丝·理查兹 Denise Richards
       柯尔斯蒂·艾利 Kirstie Alley
       山姆·麦克莫里 Sam McMurray
       明迪·斯特林 Mindy Sterling
       布莱特妮·墨菲 Brittany Murphy
       艾米·亚当斯 Amy Adams
       亚历山德拉·霍尔登 Alexandra Holden
       劳丽·A·辛克莱 Laurie A. Sinclair
       萨拉·斯图尔特 Sarah Stewart
       Kristin Rudrüd

◎标  签 美国 | 喜剧 | KirstenDunst | 1999 | 美国电影 | 女性 | 青春 | 黑色幽默

◎简  介

  In a small Minnesota town, the annual beauty pageant is being covered by a TV crew. Former winner Gladys Leeman wants to make sure her daughter follows in her footsteps. Explosions, falling lights, and trailer fires prove that. As the Leemans are the richest family in town the police are pretty relaxed about it all. Despite everything, main rival (but nice) Amber Atkins won't be stopped. There could well be more death and disappointment to come.
Video
ID                                       : 1
Format                                   : AVC
Format/Info                              : Advanced Video Codec
Format profile                           :
Format settings                          : CABAC / 8 Ref Frames
Format settings, CABAC                   : Yes
Format settings, Reference frames        : 8 frames
Codec ID                                 : V_MPEG4/ISO/AVC
Duration                                 : 1 h 37 min
Bit rate                                 : 7 338 kb/s
Width                                    : 1 280 pixels
Height                                   : 692 pixels
Display aspect ratio                     : 1.85:1
Frame rate mode                          : Constant
Frame rate                               : 23.976 (24000/1001/189150) FPS
Color space                              : YUV
Chroma subsampling                       : 4:2:0
Bit depth                                : 8 bits
Scan type                                : Progressive
Bits/(Pixel*Frame)                       : 0.346
Stream size                              : 5.02 GiB (92%)
Writing library                          : x264 core 161 r3048 b86ae3c
Encoding settings                        : cabac=1 / ref=8 / deblock=1:-3:-3 / analyse=0x3:0x133 / me=umh / subme=9 / psy=1 / psy_rd=1.00:0.00 / mixed_ref=1 / me_range=16 / chroma_me=1 / trellis=2 / 8x8dct=1 / cqm=0 / deadzone=21,11 / fast_pskip=0 / chroma_qp_offset=-2 / threads=24 / lookahead_threads=2 / sliced_threads=0 / nr=0 / decimate=0 / interlaced=0 / bluray_compat=0 / constrained_intra=0 / bframes=3 / b_pyramid=2 / b_adapt=2 / b_bias=0 / direct=3 / weightb=1 / open_gop=0 / weightp=2 / keyint=250 / keyint_min=23 / scenecut=40 / intra_refresh=0 / rc=crf / mbtree=0 / crf=18.0 / qcomp=0.60 / qpmin=0 / qpmax=69 / qpstep=4 / ip_ratio=1.40 / pb_ratio=1.30 / aq=3:0.70
Language                                 : English
Default                                  : Yes
Forced                                   : No
Color range                              : Limited
Matrix coefficients                      : BT.709

Audio
ID                                       : 2
Format                                   : AC-3
Format/Info                              : Audio Coding 3
Commercial name                          : Dolby Digital
Codec ID                                 : A_AC3
Duration                                 : 1 h 37 min
Bit rate mode                            : Constant
Bit rate                                 : 640 kb/s
Channel(s)                               : 6 channels
Channel layout                           : L R C LFE Ls Rs
Sampling rate                            : 48.0 kHz
Frame rate                               : 31.250 FPS (1536 SPF)
Compression mode                         : Lossy
Stream size                              : 448 MiB (8%)
Language                                 : English
Service kind                             : Complete Main
Default                                  : Yes
Forced                                   : No

Text #1
ID                                       : 3
Format                                   : UTF-8
Codec ID                                 : S_TEXT/UTF8
Codec ID/Info                            : UTF-8 Plain Text
Duration                                 : 1 h 31 min
Bit rate                                 : 71 b/s
Count of elements                        : 1466
Stream size                              : 47.5 KiB (0%)
Title                                    : English (SRT)
Language                                 : English
Default                                  : No
Forced                                   : No

Text #2
ID                                       : 4
Format                                   : UTF-8
Codec ID                                 : S_TEXT/UTF8
Codec ID/Info                            : UTF-8 Plain Text
Duration                                 : 1 h 37 min
Bit rate                                 : 84 b/s
Count of elements                        : 1833
Stream size                              : 60.1 KiB (0%)
Title                                    : English (SDH SRT)
Language                                 : English
Default                                  : No
Forced                                   : No

Text #3
ID                                       : 5
Format                                   : PGS
Muxing mode                              : zlib
Codec ID                                 : S_HDMV/PGS
Codec ID/Info                            : Picture based subtitle format used on BDs/HD-DVDs
Duration                                 : 1 h 37 min
Bit rate                                 : 44.4 kb/s
Count of elements                        : 3666
Stream size                              : 31.0 MiB (1%)
Title                                    : English (SDH)
Language                                 : English
Default                                  : No
Forced                                   : No

Menu
00:00:00.000                             : en:Chapter 01
00:02:43.955                             : en:Chapter 02
00:03:46.435                             : en:Chapter 03
00:06:05.198                             : en:Chapter 04
00:08:08.738                             : en:Chapter 05
00:09:08.715                             : en:Chapter 06
00:10:18.243                             : en:Chapter 07
00:10:33.925                             : en:Chapter 08
00:11:49.792                             : en:Chapter 09
00:13:39.110                             : en:Chapter 10
00:14:13.978                             : en:Chapter 11
00:15:57.415                             : en:Chapter 12
00:17:21.207                             : en:Chapter 13
00:18:42.955                             : en:Chapter 14
00:20:00.574                             : en:Chapter 15
00:22:17.002                             : en:Chapter 16
00:23:02.423                             : en:Chapter 17
00:24:16.080                             : en:Chapter 18
00:26:36.762                             : en:Chapter 19
00:28:21.491                             : en:Chapter 20
00:31:14.664                             : en:Chapter 21
00:32:45.505                             : en:Chapter 22
00:37:24.075                             : en:Chapter 23
00:39:01.297                             : en:Chapter 24
00:42:02.311                             : en:Chapter 25
00:44:20.908                             : en:Chapter 26
00:46:24.281                             : en:Chapter 27
00:47:52.578                             : en:Chapter 28
00:49:49.653                             : en:Chapter 29
00:51:20.411                             : en:Chapter 30
00:52:59.093                             : en:Chapter 31
00:54:44.281                             : en:Chapter 32
00:56:55.871                             : en:Chapter 33
01:00:32.295                             : en:Chapter 34
01:03:15.166                             : en:Chapter 35
01:05:25.338                             : en:Chapter 36
01:07:13.404                             : en:Chapter 37
01:09:52.563                             : en:Chapter 38
01:12:04.111                             : en:Chapter 39
01:15:06.001                             : en:Chapter 40
01:17:57.506                             : en:Chapter 41
01:20:00.462                             : en:Chapter 42
01:22:19.977                             : en:Chapter 43
01:24:33.735                             : en:Chapter 44
01:26:52.082                             : en:Chapter 45
01:30:11.406                             : en:Chapter 46
01:32:29.335                             : en:Chapter 47

[/url]



                                                                                                                                                                                                        
                                                                                                                                                                                                                                                                                                                                                                                                                                                                                                                                                                                                                                                                                                                                                                                                                                                        
c017156093aa2ea91259e6eeb8eab5da.zip (28.07 KB)

回复

使用道具 举报

百度云电影论坛 ( 辽ICP备17019482号-3 )

本网站所有资源来自网络,如无意中侵犯了您的权益,请发邮件至 [email protected],立即清除相关链接

GMT+8, 2021-3-3 19:18 , Processed in 0.108522 second(s), 22 queries .

Powered by Discuz! X3.2

© 2001-2013 Comsenz Inc.

快速回复 返回顶部 返回列表