百度云电影论坛

 找回密码
 立即注册

黑豹 Jaguar.Lives.1979.720p.BluRay.x264-GUACAMOLE 4.91GB

[复制链接]

百度云电影 发表于 2021-2-20 13:31:08 | 显示全部楼层 |阅读模式
帖子完整标题:黑豹 Jaguar.Lives.1979.720p.BluRay.x264-GUACAMOLE 4.91GB



[/url]

◎译  名 黑豹
◎片  名 Jaguar Lives!
◎年  代 1979
◎产  地 美国,西班牙
◎类  别 动作 / 犯罪 / 运动
◎语  言 英语
◎上映日期 1979
◎IMDb评分  4.2/10 from 367 users
◎片  长 UK: 88 分钟
◎导  演 厄内斯特·品托夫 Ernest Pintoff
◎编  剧 雅铂·布隆斯基  Yabo Yablonsky
◎主  演 唐纳德·普利森斯 Donald Pleasence
       Ray Jewers
       Víctor Israel
       Gabriel Melgar
       Fedra Lorente
       乔·刘易斯 Joe Lewis
       Luis Prendes
       乔治·里戈 George Rigaud
       Jay T. Will
       Oscar James
       Anthony De Longis
       约瑟夫·怀斯曼 Joseph Wiseman
       芭芭拉·贝芝 Barbara Bach
       元华 Wah Yuen
       伍迪·斯特罗德 Woody Strode
       约翰·休斯顿 John Huston
       西蒙·安德鲁 Simón Andreu
       Bill Curran
       卡普西尼 Capucine
       克里斯托弗·李 Christopher Lee

◎标  签 有

◎简  介

  A world's new kung-fu hero (Joe Lewis) is out to stop drug dealers, gangs and help save the world from an evil con (Christopher Lee).
Video
ID                                       : 1
Format                                   : AVC
Format/Info                              : Advanced Video Codec
Format profile                           :
Format settings                          : CABAC / 8 Ref Frames
Format settings, CABAC                   : Yes
Format settings, Reference frames        : 8 frames
Codec ID                                 : V_MPEG4/ISO/AVC
Duration                                 : 1 h 30 min
Bit rate                                 : 7 512 kb/s
Width                                    : 960 pixels
Height                                   : 720 pixels
Display aspect ratio                     : 4:3
Frame rate mode                          : Constant
Frame rate                               : 24.000 FPS
Color space                              : YUV
Chroma subsampling                       : 4:2:0
Bit depth                                : 8 bits
Scan type                                : Progressive
Bits/(Pixel*Frame)                       : 0.453
Stream size                              : 4.74 GiB (97%)
Writing library                          : x264 core 161 r3048 b86ae3c
Encoding settings                        : cabac=1 / ref=8 / deblock=1:-3:-3 / analyse=0x3:0x133 / me=umh / subme=9 / psy=1 / psy_rd=1.00:0.00 / mixed_ref=1 / me_range=16 / chroma_me=1 / trellis=2 / 8x8dct=1 / cqm=0 / deadzone=21,11 / fast_pskip=0 / chroma_qp_offset=-2 / threads=22 / lookahead_threads=1 / sliced_threads=0 / nr=0 / decimate=1 / interlaced=0 / bluray_compat=0 / constrained_intra=0 / bframes=3 / b_pyramid=2 / b_adapt=2 / b_bias=0 / direct=3 / weightb=1 / open_gop=0 / weightp=2 / keyint=250 / keyint_min=24 / scenecut=40 / intra_refresh=0 / rc_lookahead=60 / rc=crf / mbtree=1 / crf=18.0 / qcomp=0.60 / qpmin=0 / qpmax=69 / qpstep=4 / ip_ratio=1.40 / aq=3:0.60
Default                                  : Yes
Forced                                   : No
Color range                              : Limited
Matrix coefficients                      : BT.709

Audio
ID                                       : 2
Format                                   : AC-3
Format/Info                              : Audio Coding 3
Commercial name                          : Dolby Digital
Codec ID                                 : A_AC3
Duration                                 : 1 h 30 min
Bit rate mode                            : Constant
Bit rate                                 : 256 kb/s
Channel(s)                               : 2 channels
Channel layout                           : L R
Sampling rate                            : 48.0 kHz
Frame rate                               : 31.250 FPS (1536 SPF)
Compression mode                         : Lossy
Stream size                              : 166 MiB (3%)
Language                                 : English
Service kind                             : Complete Main
Default                                  : Yes
Forced                                   : No

Text
ID                                       : 3
Format                                   : PGS
Muxing mode                              : zlib
Codec ID                                 : S_HDMV/PGS
Codec ID/Info                            : Picture based subtitle format used on BDs/HD-DVDs
Duration                                 : 1 h 30 min
Bit rate                                 : 23.0 kb/s
Count of elements                        : 1697
Stream size                              : 14.9 MiB (0%)
Title                                    : Vobsubs
Language                                 : German
Default                                  : No
Forced                                   : No

Menu
00:00:00.000                             : en:00:00:00.000
00:00:00.375                             : en:00:00:00.375
00:12:32.708                             : en:00:12:32.708
00:27:36.917                             : en:00:27:36.917
00:42:16.000                             : en:00:42:16.000
00:57:21.792                             : en:00:57:21.792
01:09:26.292                             : en:01:09:26.292
01:21:28.250                             : en:01:21:28.250
01:28:18.625                             : en:01:28:18.625

[/url]



                                                                                                                                                                                                        
                                                                                                                                                                                                                                                                                                                                                                                                                                                                                                                                                                                                                                                                                                                                                                                                                                                        
495ce53af7b99e1ee55c807c0ff8f320.zip (49.78 KB)

回复

使用道具 举报

百度云电影论坛 ( 辽ICP备17019482号-3 )

本网站所有资源来自网络,如无意中侵犯了您的权益,请发邮件至 [email protected],立即清除相关链接

GMT+8, 2021-3-3 18:49 , Processed in 0.097757 second(s), 22 queries .

Powered by Discuz! X3.2

© 2001-2013 Comsenz Inc.

快速回复 返回顶部 返回列表