百度云电影论坛

 找回密码
 立即注册

谍网妖姬 Affair.in.Trinidad.1952.720p.BluRay.x264-ORBS 4.46GB

[复制链接]

百度云电影 发表于 2021-2-20 13:30:44 | 显示全部楼层 |阅读模式
帖子完整标题:谍网妖姬 Affair.in.Trinidad.1952.720p.BluRay.x264-ORBS 4.46GB



[/url]

◎译  名 谍网妖姬
◎片  名 Affair in Trinidad
◎年  代 1952
◎产  地 美国
◎类  别 剧情 / 惊悚 / 歌舞 / 黑色电影
◎语  言 英语
◎上映日期 1952-07-29
◎IMDb评分  6.6/10 from 2075 users
◎片  长 98 分钟
◎导  演 文森特·舒曼 Vincent Sherman
◎编  剧 奥斯卡·索尔 Oscar Saul / 詹姆斯·古恩 James Gunn / 弗吉尼娅·范厄普 Virginia Van Upp / 伯恩·吉莱尔 Berne Giler
◎主  演 丽塔·海华斯 Rita Hayworth
       格伦·福特 Glenn Ford
       亚历山大·斯库比 Alexander Scourby

◎标  签 美国 | 黑色电影 | 1950s | 丽塔·海华斯 | Rita_Hayworth | Glenn_Ford | Film-Noir | 黑色

◎简  介

  暂无相关剧情介绍

◎获奖情况

  第25届奥斯卡金像奖 ?(1953)
  黑白片最佳服装设计(提名) 让·路易
Video
ID                                       : 1
Format                                   : AVC
Format/Info                              : Advanced Video Codec
Format profile                           :
Format settings                          : CABAC / 12 Ref Frames
Format settings, CABAC                   : Yes
Format settings, Reference frames        : 12 frames
Codec ID                                 : V_MPEG4/ISO/AVC
Duration                                 : 1 h 38 min
Bit rate                                 : 6 139 kb/s
Width                                    : 958 pixels
Height                                   : 720 pixels
Display aspect ratio                     : 4:3
Frame rate mode                          : Constant
Frame rate                               : 23.976 (24000/1001/189150) FPS
Color space                              : YUV
Chroma subsampling                       : 4:2:0
Bit depth                                : 8 bits
Scan type                                : Progressive
Bits/(Pixel*Frame)                       : 0.371
Stream size                              : 4.21 GiB (94%)
Writing library                          : x264 core 161 r3043 59c0609
Encoding settings                        : cabac=1 / ref=12 / deblock=1:-3:-3 / analyse=0x3:0x133 / me=umh / subme=10 / psy=1 / psy_rd=1.50:0.15 / mixed_ref=1 / me_range=24 / chroma_me=1 / trellis=2 / 8x8dct=1 / cqm=0 / deadzone=21,11 / fast_pskip=0 / chroma_qp_offset=-3 / threads=22 / lookahead_threads=3 / sliced_threads=0 / nr=0 / decimate=0 / interlaced=0 / bluray_compat=0 / constrained_intra=0 / bframes=8 / b_pyramid=2 / b_adapt=2 / b_bias=0 / direct=3 / weightb=1 / open_gop=0 / weightp=2 / keyint=250 / keyint_min=23 / scenecut=40 / intra_refresh=0 / rc_lookahead=60 / rc=crf / mbtree=1 / crf=21.0 / qcomp=0.60 / qpmin=0 / qpmax=69 / qpstep=4 / ip_ratio=1.40 / aq=3:0.50
Default                                  : Yes
Forced                                   : No
Color range                              : Limited
Matrix coefficients                      : BT.709

Audio #1
ID                                       : 2
Format                                   : FLAC
Format/Info                              : Free Lossless Audio Codec
Codec ID                                 : A_FLAC
Duration                                 : 1 h 38 min
Bit rate mode                            : Variable
Bit rate                                 : 266 kb/s
Channel(s)                               : 1 channel
Channel layout                           : C
Sampling rate                            : 48.0 kHz
Frame rate                               : 11.719 FPS (4096 SPF)
Bit depth                                : 16 bits
Compression mode                         : Lossless
Stream size                              : 186 MiB (4%)
Writing library                          : libFLAC 1.3.2 (UTC 2017-01-01)
Language                                 : English
Default                                  : Yes
Forced                                   : No

Audio #2
ID                                       : 3
Format                                   : AAC LC
Format/Info                              : Advanced Audio Codec Low Complexity
Codec ID                                 : A_AAC-2
Duration                                 : 1 h 38 min
Bit rate                                 : 79.9 kb/s
Channel(s)                               : 2 channels
Channel layout                           : L R
Sampling rate                            : 48.0 kHz
Frame rate                               : 46.875 FPS (1024 SPF)
Compression mode                         : Lossy
Delay relative to video                  : 20 ms
Stream size                              : 56.1 MiB (1%)
Title                                    : Commentary
Language                                 : English
Default                                  : No
Forced                                   : No

Text
ID                                       : 4
Format                                   : PGS
Muxing mode                              : zlib
Codec ID                                 : S_HDMV/PGS
Codec ID/Info                            : Picture based subtitle format used on BDs/HD-DVDs
Duration                                 : 1 h 37 min
Bit rate                                 : 50.5 kb/s
Count of elements                        : 3136
Stream size                              : 35.4 MiB (1%)
Title                                    : SDH
Language                                 : English
Default                                  : No
Forced                                   : No

Menu
00:00:00.000                             : en:Chapter 01
00:09:38.536                             : en:Chapter 02
00:19:56.070                             : en:Chapter 03
00:28:29.666                             : en:Chapter 04
00:35:03.310                             : en:Chapter 05
00:42:50.943                             : en:Chapter 06
00:50:21.685                             : en:Chapter 07
00:58:14.241                             : en:Chapter 08
01:07:35.009                             : en:Chapter 09
01:17:44.785                             : en:Chapter 10
01:25:28.623                             : en:Chapter 11

[/url]



                                                                                                                                                                                                        
                                                                                                                                                                                                                                                                                                                                                                                                                                                                                                                                                                                                                                                                                                                                                                                                                                                        
164ee6cb4d2f4f6559c7d897f8e95394.zip (45.29 KB)

回复

使用道具 举报

百度云电影论坛 ( 辽ICP备17019482号-3 )

本网站所有资源来自网络,如无意中侵犯了您的权益,请发邮件至 [email protected],立即清除相关链接

GMT+8, 2021-3-5 11:53 , Processed in 0.098854 second(s), 22 queries .

Powered by Discuz! X3.2

© 2001-2013 Comsenz Inc.

快速回复 返回顶部 返回列表