百度云电影论坛

 找回密码
 立即注册

我们保守的秘密/地下弒的秘密 The.Secrets.We.Keep.2020.1080p.BluRa...

[复制链接]

百度云电影 发表于 2021-2-19 13:38:07 | 显示全部楼层 |阅读模式
-->
帖子完整标题:我们保守的秘密/地下弒的秘密 The.Secrets.We.Keep.2020.1080p.BluRay.x264.DTS-HD.MA.5.1-FGT 9.76GB



[/url]

◎译  名 我们保守的秘密/地下弒的秘密(台)
◎片  名 The Secrets We Keep
◎年  代 2020
◎产  地 美国
◎类  别 剧情 / 悬疑 / 惊悚 / 犯罪
◎语  言 英语
◎上映日期 2020-09-16(美国)
◎IMDb评分  5.7/10 from 2615 users
◎IMDb链接  
◎豆瓣评分 6.3/10 from 511 users
◎豆瓣链接 
◎片  长 97分钟
◎导  演 尤瓦尔·阿德勒 Yuval Adler
◎编  剧 瑞安·科文顿 Ryan Covington / 尤瓦尔·阿德勒 Yuval Adler
◎主  演 劳米·拉佩斯 Noomi Rapace
       乔尔·金纳曼 Joel Kinnaman
       克里斯·梅西纳 Chris Messina
       杰克逊·迪恩·文森特 Jackson Dean Vincent
       艾米·西米茨 Amy Seimetz
       米卢特·纳林 Miluette Nalin
       麦迪逊·佩奇·琼斯 Madison Paige Jones
       杰夫·波普 Jeff Pope
       大卫·马尔登那多 David Maldonado
       埃德·阿玛特鲁多 Ed Amatrudo
       里奇·蒙哥马利 Ritchie Montgomery
       维多利亚·希尔 Victoria Hill
       托马斯·弗兰西斯·墨菲 Thomas Francis Murphy
       罗科·布罗卡托 Rocco Brocato
       杰森·博伊尔 Jason Boyle
       露西·浮士德 Lucy Faust

◎标  签 悬疑 | 剧情 | 美国 | 犯罪 | 惊悚 | 2020 | 美国电影 | 乔尔·金纳曼

◎简  介

  影片讲述二战后,玛雅(劳米饰)与丈夫(克里斯饰)在纽约重新开始生活。他们遇到了一个熟悉的男人(乔尔饰),他们的生活开始瓦解。这对夫妇想知道,他是不是那个在奥斯威辛集中营的军官。
Video
ID                                       : 1
Format                                   : AVC
Format/Info                              : Advanced Video Codec
Format profile                           :
Format settings                          : CABAC / 4 Ref Frames
Format settings, CABAC                   : Yes
Format settings, Reference frames        : 4 frames
Codec ID                                 : V_MPEG4/ISO/AVC
Duration                                 : 1 h 37 min
Bit rate                                 : 11.5 Mb/s
Width                                    : 1 920 pixels
Height                                   : 804 pixels
Display aspect ratio                     : 2.40:1
Frame rate mode                          : Constant
Frame rate                               : 24.000 FPS
Color space                              : YUV
Chroma subsampling                       : 4:2:0
Bit depth                                : 8 bits
Scan type                                : Progressive
Bits/(Pixel*Frame)                       : 0.310
Stream size                              : 7.84 GiB (80%)
Writing library                          : x264 core 148 r2748 97eaef2
Encoding settings                        : cabac=1 / ref=4 / deblock=1:-2:-2 / analyse=0x3:0x113 / me=umh / subme=9 / psy=1 / psy_rd=1.00:0.15 / mixed_ref=1 / me_range=16 / chroma_me=1 / trellis=2 / 8x8dct=1 / cqm=0 / deadzone=21,11 / fast_pskip=1 / chroma_qp_offset=-3 / threads=72 / lookahead_threads=3 / sliced_threads=0 / nr=0 / decimate=1 / interlaced=0 / bluray_compat=0 / constrained_intra=0 / bframes=3 / b_pyramid=2 / b_adapt=1 / b_bias=0 / direct=3 / weightb=1 / open_gop=0 / weightp=2 / keyint=250 / keyint_min=25 / scenecut=40 / intra_refresh=0 / rc_lookahead=50 / rc=2pass / mbtree=1 / bitrate=11500 / ratetol=1.0 / qcomp=0.60 / qpmin=0 / qpmax=69 / qpstep=4 / cplxblur=20.0 / qblur=0.5 / vbv_maxrate=31250 / vbv_bufsize=31250 / nal_hrd=none / filler=0 / ip_ratio=1.40 / aq=1:1.00
Default                                  : Yes
Forced                                   : No

Audio
ID                                       : 2
Format                                   : DTS XLL
Format/Info                              : Digital Theater Systems
Commercial name                          : DTS-HD Master Audio
Codec ID                                 : A_DTS
Duration                                 : 1 h 37 min
Bit rate mode                            : Variable
Bit rate                                 : 2 797 kb/s
Channel(s)                               : 6 channels
Channel layout                           : C L R Ls Rs LFE
Sampling rate                            : 48.0 kHz
Frame rate                               : 93.750 FPS (512 SPF)
Bit depth                                : 24 bits
Compression mode                         : Lossless
Stream size                              : 1.91 GiB (20%)
Title                                    : DTS-HD MA 5.1
Language                                 : English
Default                                  : Yes
Forced                                   : No

Text
ID                                       : 3
Format                                   : UTF-8
Codec ID                                 : S_TEXT/UTF8
Codec ID/Info                            : UTF-8 Plain Text
Duration                                 : 1 h 29 min
Bit rate                                 : 44 b/s
Count of elements                        : 998
Stream size                              : 29.2 KiB (0%)
Title                                    : SRT
Language                                 : English
Default                                  : Yes
Forced                                   : No

Menu
00:00:00.000                             : :Chapter 01
00:08:06.208                             : :Chapter 02
00:15:58.000                             : :Chapter 03
00:22:46.083                             : :Chapter 04
00:29:58.458                             : :Chapter 05
00:38:09.792                             : :Chapter 06
00:48:33.583                             : :Chapter 07
00:57:32.625                             : :Chapter 08
01:05:53.667                             : :Chapter 09
01:12:59.708                             : :Chapter 10
01:22:28.792                             : :Chapter 11
01:31:33.000                             : :Chapter 12

[/url][/url][/url]



                                                                                                                                                                                                        
                                                                                                                                                                                                                                                                                                                                                                                                                                                                                                                                                                                                                                                                                                                                                                                                                                                        
57f23c931b620cd7cc3b4c5ab1c5a830.zip (49.47 KB)

回复

使用道具 举报

百度云电影论坛 ( 辽ICP备17019482号-3 )

本网站所有资源来自网络,如无意中侵犯了您的权益,请发邮件至 [email protected],立即清除相关链接

GMT+8, 2021-3-8 08:06 , Processed in 0.089695 second(s), 22 queries .

Powered by Discuz! X3.2

© 2001-2013 Comsenz Inc.

快速回复 返回顶部 返回列表