百度云电影论坛

 找回密码
 立即注册

剑客 The.Swordsman.2020.KOREAN.1080p.BluRay.x264.DTS-MT 10.34GB

[复制链接]

-->
帖子完整标题:剑客 The.Swordsman.2020.KOREAN.1080p.BluRay.x264.DTS-MT 10.34GB



[/url]

◎译  名 剑客/Swordsman
◎片  名 ??
◎年  代 2020
◎产  地 韩国
◎类  别 动作
◎语  言 韩语
◎上映日期 2020-09-23(韩国)
◎IMDb评分  6.6/10 from 619 users
◎IMDb链接  
◎豆瓣评分 6.0/10 from 504 users
◎豆瓣链接 
◎片  长 100分钟
◎主  演 张赫 Hyuk Jang
       郑满植 Man-shik Jeong
       乔·塔斯利姆 Joe Taslim
       崔镇浩 Jin-ho Choi
       金贤秀 Hyun-su Kim
       张铉诚 Hyeong-seong Jang
       李旼赫 Min-hyuk Lee
       池雄裴 Woong-bae Ji
       尹承勋 Yoon Seung-hoon
       池承炫 Ji Seung-hyeon
       金敏善 Min-seo Kim

◎标  签 韩国 | 动作 | 武侠 | 韩国电影 | 古装 | 动作片 | 2020 | 历史

◎简  介

  该片讲述光海君废位时期,朝鲜最佳剑客“泰率”(张赫 饰)为了寻找消失的女儿再次举起剑的追击动作电影。
Video
ID                                       : 1
Format                                   : AVC
Format/Info                              : Advanced Video Codec
Format profile                           :
Format settings                          : CABAC / 4 Ref Frames
Format settings, CABAC                   : Yes
Format settings, Reference frames        : 4 frames
Codec ID                                 : V_MPEG4/ISO/AVC
Duration                                 : 1 h 40 min
Bit rate                                 : 13.2 Mb/s
Width                                    : 1 920 pixels
Height                                   : 1 038 pixels
Display aspect ratio                     : 1.85:1
Frame rate mode                          : Constant
Frame rate                               : 23.976 (24000/1001/189150) FPS
Color space                              : YUV
Chroma subsampling                       : 4:2:0
Bit depth                                : 8 bits
Scan type                                : Progressive
Bits/(Pixel*Frame)                       : 0.276
Stream size                              : 9.27 GiB (90%)
Writing library                          : x264 core 157 r2938 2b00a84  Mod
Encoding settings                        : cabac=1 / ref=4 / deblock=1:-3:-3 / analyse=0x3:0x133 / me=umh / subme=10 / psy=1 / psy_rd=1.05:0.00 / mixed_ref=1 / me_range=32 / chroma_me=1 / trellis=2 / 8x8dct=1 / cqm=0 / deadzone=21,11 / fast_pskip=0 / chroma_qp_offset=-2 / threads=12 / lookahead_threads=2 / sliced_threads=0 / nr=0 / decimate=0 / interlaced=0 / bluray_compat=0 / constrained_intra=0 / bframes=8 / b_pyramid=2 / b_adapt=2 / b_bias=0 / direct=3 / weightb=1 / open_gop=0 / weightp=2 / keyint=250 / keyint_min=24 / scenecut=40 / intra_refresh=0 / rc_lookahead=250 / rc=crf / mbtree=0 / crf=16.8 / qcomp=0.60 / qpmin=0 / qpmax=69 / qpstep=4 / vbv_maxrate=62500 / vbv_bufsize=78125 / crf_max=0.0 / nal_hrd=none / filler=0 / ip_ratio=1.30 / pb_ratio=1.20 / aq=3:0.80
Language                                 : Korean
Default                                  : Yes
Forced                                   : No
Color range                              : Limited
Color primaries                          : BT.709
Matrix coefficients                      : BT.709

Audio
ID                                       : 2
Format                                   : DTS
Format/Info                              : Digital Theater Systems
Codec ID                                 : A_DTS
Duration                                 : 1 h 40 min
Bit rate mode                            : Constant
Bit rate                                 : 1 509 kb/s
Channel(s)                               : 6 channels
Channel layout                           : C L R Ls Rs LFE
Sampling rate                            : 48.0 kHz
Frame rate                               : 93.750 FPS (512 SPF)
Bit depth                                : 16 bits
Compression mode                         : Lossy
Stream size                              : 1.06 GiB (10%)
Language                                 : Korean
Default                                  : Yes
Forced                                   : No

Text
ID                                       : 3
Format                                   : UTF-8
Codec ID                                 : S_TEXT/UTF8
Codec ID/Info                            : UTF-8 Plain Text
Duration                                 : 1 h 33 min
Bit rate                                 : 27 b/s
Count of elements                        : 604
Stream size                              : 18.6 KiB (0%)
Language                                 : English
Default                                  : Yes
Forced                                   : No

Menu
00:00:00.000                             : en:Chapter 01
00:07:30.700                             : en:Chapter 02
00:14:30.369                             : en:Chapter 03
00:22:50.578                             : en:Chapter 04
00:29:10.290                             : en:Chapter 05
00:35:15.196                             : en:Chapter 06
00:46:49.390                             : en:Chapter 07
00:55:49.096                             : en:Chapter 08
01:05:04.692                             : en:Chapter 09
01:16:46.894                             : en:Chapter 10
01:22:35.325                             : en:Chapter 11
01:36:58.521                             : en:Chapter 12

[/url][/url]



                                                                                                                                                                                                        
                                                                                                                                                                                                                                                                                                                                                                                                                                                                                                                                                                                                                                                                                                                                                                                                                                                        
d2f673a39f14f257cce662edc2b4c4c3.zip (52.34 KB)

回复

使用道具 举报

百度云电影论坛 ( 辽ICP备17019482号-3 )

本网站所有资源来自网络,如无意中侵犯了您的权益,请发邮件至 [email protected],立即清除相关链接

GMT+8, 2021-2-25 10:24 , Processed in 0.095983 second(s), 22 queries .

Powered by Discuz! X3.2

© 2001-2013 Comsenz Inc.

快速回复 返回顶部 返回列表