百度云电影论坛

 找回密码
 立即注册

寄生异形 Sputnik.2020.RUSSIAN.1080p.US.BluRay.x264.DTS-FGT 11.59GB

[复制链接]

百度云电影 发表于 2021-2-19 13:37:06 | 显示全部楼层 |阅读模式
-->
帖子完整标题:寄生异形 Sputnik.2020.RUSSIAN.1080p.US.BluRay.x264.DTS-FGT 11.59GB



[/url]

◎译  名 寄生异形/Satellite/Sputnik/人造卫星/卫星
◎片  名 Спутник
◎年  代 2020
◎产  地 俄罗斯
◎类  别 科幻 / 恐怖
◎语  言 俄语
◎上映日期 2020-04-15(翠贝卡电影节) / 2020-04-23(俄罗斯)
◎IMDb评分  6.4/10 from 14177 users
◎IMDb链接  
◎豆瓣评分 5.9/10 from 4663 users
◎豆瓣链接 
◎片  长 105分钟
◎导  演 艾戈尔·阿布拉门科 Egor Abramenko
◎编  剧 奥列格·马洛维奇克 Oleg Malovichko / 安德烈·佐洛塔廖夫 Andrey Zolotarev
◎主  演 奥莎娜·阿金什那 Oksana Akinshina
       费奥多尔·邦达尔丘克 Fyodor Bondarchuk
       彼得·费奥多罗夫 Pyotr Fyodorov
       安东·瓦西利耶夫 Anton Vasilev
       阿列克谢·杰米多夫 Aleksey Demidov
       维塔丽雅·科尔尼扬科 Vitaliya Kornienko

◎标  签 科幻 | 俄罗斯 | 惊悚 | 外星人 | 恐怖 | 2020 | 电影 | 悬疑

◎简  介

  年轻女医生Tatiana Yurievna(奥莎娜·阿金什那 Oksana Akinshina 饰)因为使用具争议的技术而差点被吊销医师执照。但她被军方招募来到一个机密的研究机构,协助研究一个特别的案例,太空人Konstantin Sergeyevich(彼得·费奥多罗 夫 Pyotr Fyodorov 饰)。这位太空人历经神秘的太空意外后幸存返回地球,体内却多了外星生物,而且这个神秘生物只在深夜时现身。军方想拥有这个外星生物进行邪恶的计划,但女医生只想阻止外星生物杀害太空人。

◎获奖情况

  第4届平遥国际电影展 ?(2020)
  首映单元最受欢迎影片(提名) 艾戈尔·阿布拉门科
Video
ID                                       : 1
Format                                   : AVC
Format/Info                              : Advanced Video Codec
Format profile                           :
Format settings                          : CABAC / 4 Ref Frames
Format settings, CABAC                   : Yes
Format settings, Reference frames        : 4 frames
Codec ID                                 : V_MPEG4/ISO/AVC
Duration                                 : 1 h 54 min
Bit rate                                 : 11.5 Mb/s
Width                                    : 1 920 pixels
Height                                   : 804 pixels
Display aspect ratio                     : 2.40:1
Frame rate mode                          : Constant
Frame rate                               : 23.976 (24000/1001/189150) FPS
Color space                              : YUV
Chroma subsampling                       : 4:2:0
Bit depth                                : 8 bits
Scan type                                : Progressive
Bits/(Pixel*Frame)                       : 0.311
Stream size                              : 9.16 GiB (79%)
Writing library                          : x264 core 148 r2748 97eaef2
Encoding settings                        : cabac=1 / ref=4 / deblock=1:-2:-2 / analyse=0x3:0x113 / me=umh / subme=9 / psy=1 / psy_rd=1.00:0.15 / mixed_ref=1 / me_range=16 / chroma_me=1 / trellis=2 / 8x8dct=1 / cqm=0 / deadzone=21,11 / fast_pskip=1 / chroma_qp_offset=-3 / threads=72 / lookahead_threads=3 / sliced_threads=0 / nr=0 / decimate=1 / interlaced=0 / bluray_compat=0 / constrained_intra=0 / bframes=3 / b_pyramid=2 / b_adapt=1 / b_bias=0 / direct=3 / weightb=1 / open_gop=0 / weightp=2 / keyint=250 / keyint_min=25 / scenecut=40 / intra_refresh=0 / rc_lookahead=50 / rc=2pass / mbtree=1 / bitrate=11500 / ratetol=1.0 / qcomp=0.60 / qpmin=0 / qpmax=69 / qpstep=4 / cplxblur=20.0 / qblur=0.5 / vbv_maxrate=31250 / vbv_bufsize=31250 / nal_hrd=none / filler=0 / ip_ratio=1.40 / aq=1:1.00
Language                                 : English
Default                                  : Yes
Forced                                   : No

Audio #1
ID                                       : 2
Format                                   : DTS
Format/Info                              : Digital Theater Systems
Codec ID                                 : A_DTS
Duration                                 : 1 h 54 min
Bit rate mode                            : Constant
Bit rate                                 : 1 509 kb/s
Channel(s)                               : 6 channels
Channel layout                           : C L R Ls Rs LFE
Sampling rate                            : 48.0 kHz
Frame rate                               : 93.750 FPS (512 SPF)
Bit depth                                : 24 bits
Compression mode                         : Lossy
Stream size                              : 1.20 GiB (10%)
Title                                    : DTS 5.1
Language                                 : Russian
Default                                  : Yes
Forced                                   : No

Audio #2
ID                                       : 3
Format                                   : DTS
Format/Info                              : Digital Theater Systems
Codec ID                                 : A_DTS
Duration                                 : 1 h 54 min
Bit rate mode                            : Constant
Bit rate                                 : 1 509 kb/s
Channel(s)                               : 6 channels
Channel layout                           : C L R Ls Rs LFE
Sampling rate                            : 48.0 kHz
Frame rate                               : 93.750 FPS (512 SPF)
Bit depth                                : 24 bits
Compression mode                         : Lossy
Stream size                              : 1.20 GiB (10%)
Title                                    : DTS 5.1
Language                                 : English
Default                                  : No
Forced                                   : No

Text #1
ID                                       : 4
Format                                   : UTF-8
Codec ID                                 : S_TEXT/UTF8
Codec ID/Info                            : UTF-8 Plain Text
Duration                                 : 1 h 47 min
Bit rate                                 : 40 b/s
Count of elements                        : 1130
Stream size                              : 31.8 KiB (0%)
Title                                    : English-SRT
Language                                 : English
Default                                  : Yes
Forced                                   : No

Text #2
ID                                       : 5
ID in the original source medium         : 4608 (0x1200)
Format                                   : PGS
Muxing mode                              : zlib
Codec ID                                 : S_HDMV/PGS
Codec ID/Info                            : Picture based subtitle format used on BDs/HD-DVDs
Duration                                 : 1 h 51 min
Bit rate                                 : 30.3 kb/s
Count of elements                        : 2192
Stream size                              : 24.1 MiB (0%)
Title                                    : English-SDH-PGS
Language                                 : English
Default                                  : No
Forced                                   : No
Original source medium                   : Blu-ray

Text #3
ID                                       : 6
ID in the original source medium         : 4609 (0x1201)
Format                                   : PGS
Muxing mode                              : zlib
Codec ID                                 : S_HDMV/PGS
Codec ID/Info                            : Picture based subtitle format used on BDs/HD-DVDs
Duration                                 : 1 h 47 min
Bit rate                                 : 1 180 b/s
Count of elements                        : 94
Stream size                              : 930 KiB (0%)
Title                                    : English-FORCED-PGS
Language                                 : English
Default                                  : No
Forced                                   : No
Original source medium                   : Blu-ray

Text #4
ID                                       : 7
ID in the original source medium         : 4610 (0x1202)
Format                                   : PGS
Muxing mode                              : zlib
Codec ID                                 : S_HDMV/PGS
Codec ID/Info                            : Picture based subtitle format used on BDs/HD-DVDs
Duration                                 : 1 h 47 min
Bit rate                                 : 22.6 kb/s
Count of elements                        : 1834
Stream size                              : 17.4 MiB (0%)
Title                                    : English-PGS
Language                                 : English
Default                                  : No
Forced                                   : No
Original source medium                   : Blu-ray

Menu
00:00:00.000                             : en:Chapter 01
00:08:10.531                             : en:Chapter 02
00:15:43.984                             : en:Chapter 03
00:24:06.736                             : en:Chapter 04
00:36:38.196                             : en:Chapter 05
00:49:19.748                             : en:Chapter 06
01:00:02.181                             : en:Chapter 07
01:09:45.389                             : en:Chapter 08
01:17:01.408                             : en:Chapter 09
01:27:32.705                             : en:Chapter 10
01:35:40.234                             : en:Chapter 11
01:44:49.491                             : en:Chapter 12
01:54:04.128                             : en:Chapter 13

[/url][/url][/url]



                                                                                                                                                                                                        
                                                                                                                                                                                                                                                                                                                                                                                                                                                                                                                                                                                                                                                                                                                                                                                                                                                        
59fb4fca3750b844cd74588480fbea25.zip (58.61 KB)

回复

使用道具 举报

百度云电影论坛 ( 辽ICP备17019482号-3 )

本网站所有资源来自网络,如无意中侵犯了您的权益,请发邮件至 [email protected],立即清除相关链接

GMT+8, 2021-3-4 07:25 , Processed in 0.104256 second(s), 22 queries .

Powered by Discuz! X3.2

© 2001-2013 Comsenz Inc.

快速回复 返回顶部 返回列表