百度云电影论坛

 找回密码
 立即注册

暗室 Darkroom.1989.720p.BluRay.x264-GAZER 5.66GB

[复制链接]

百度云电影 发表于 2021-2-19 13:34:28 | 显示全部楼层 |阅读模式
-->
帖子完整标题:暗室 Darkroom.1989.720p.BluRay.x264-GAZER 5.66GB



[/url]

◎译  名 暗室
◎片  名 Darkroom
◎年  代 1989
◎产  地 美国
◎类  别 恐怖
◎语  言 英语
◎上映日期 1989-06-07(英国)
◎IMDb评分  4.6/10 from 287 users
◎IMDb链接  
◎豆瓣评分 /10 from 0 users
◎豆瓣链接 
◎片  长 93分钟
◎导  演 Terrence O'Hara / 尼科·马斯托拉基斯 Nico Mastorakis
◎编  剧 Rick Pamplin
◎主  演 Aarin Teich

◎标  签 恐怖 | 惊悚 | 美国 | 血腥 | 变态 | 犯罪 | 暴力 | 悬疑

◎简  介

  珍妮特回到家中,发现自己的妹妹宝拉被谋杀了。在男友斯蒂夫的帮助下,她开始寻找杀害宝拉的真凶。但当变态杀人狂原形毕露的时候,珍妮特和她的家人成了他狂热攻击的目标。该片将您带到心灵扭曲的边缘,堪称一部真实的恐怖片。
Video
ID                                       : 1
Format                                   : AVC
Format/Info                              : Advanced Video Codec
Format profile                           :
Format settings                          : CABAC / 9 Ref Frames
Format settings, CABAC                   : Yes
Format settings, Reference frames        : 9 frames
Codec ID                                 : V_MPEG4/ISO/AVC
Duration                                 : 1 h 25 min
Bit rate                                 : 8 841 kb/s
Width                                    : 1 280 pixels
Height                                   : 690 pixels
Display aspect ratio                     : 1.85:1
Frame rate mode                          : Constant
Frame rate                               : 23.976 (24000/1001/189150) FPS
Color space                              : YUV
Chroma subsampling                       : 4:2:0
Bit depth                                : 8 bits
Scan type                                : Progressive
Bits/(Pixel*Frame)                       : 0.418
Stream size                              : 5.26 GiB (93%)
Writing library                          : x264 core 161 r3027 4121277
Encoding settings                        : cabac=1 / ref=9 / deblock=1:-3:-3 / analyse=0x3:0x133 / me=umh / subme=10 / psy=1 / psy_rd=1.50:0.15 / mixed_ref=1 / me_range=24 / chroma_me=1 / trellis=2 / 8x8dct=1 / cqm=0 / deadzone=21,11 / fast_pskip=0 / chroma_qp_offset=-3 / threads=22 / lookahead_threads=3 / sliced_threads=0 / nr=0 / decimate=0 / interlaced=0 / bluray_compat=0 / constrained_intra=0 / bframes=8 / b_pyramid=2 / b_adapt=2 / b_bias=0 / direct=3 / weightb=1 / open_gop=0 / weightp=2 / keyint=250 / keyint_min=23 / scenecut=40 / intra_refresh=0 / rc_lookahead=60 / rc=crf / mbtree=1 / crf=19.0 / qcomp=0.60 / qpmin=0 / qpmax=69 / qpstep=4 / ip_ratio=1.40 / aq=3:0.50
Default                                  : Yes
Forced                                   : No
Color range                              : Limited
Matrix coefficients                      : BT.709

Audio
ID                                       : 2
Format                                   : AC-3
Format/Info                              : Audio Coding 3
Commercial name                          : Dolby Digital
Codec ID                                 : A_AC3
Duration                                 : 1 h 25 min
Bit rate mode                            : Constant
Bit rate                                 : 640 kb/s
Channel(s)                               : 6 channels
Channel layout                           : L R C LFE Ls Rs
Sampling rate                            : 48.0 kHz
Frame rate                               : 31.250 FPS (1536 SPF)
Compression mode                         : Lossy
Stream size                              : 390 MiB (7%)
Language                                 : English
Service kind                             : Complete Main
Default                                  : Yes
Forced                                   : No

Text
ID                                       : 3
Format                                   : PGS
Muxing mode                              : zlib
Codec ID                                 : S_HDMV/PGS
Codec ID/Info                            : Picture based subtitle format used on BDs/HD-DVDs
Duration                                 : 1 h 22 min
Bit rate                                 : 32.2 kb/s
Count of elements                        : 1974
Stream size                              : 19.1 MiB (0%)
Title                                    : SDH
Language                                 : English
Default                                  : No
Forced                                   : No

Menu
00:00:00.000                             : en:Chapter 01
00:08:49.237                             : en:Chapter 02
00:15:57.957                             : en:Chapter 03
00:23:22.901                             : en:Chapter 04
00:29:48.412                             : en:Chapter 05
00:37:20.113                             : en:Chapter 06
00:45:03.200                             : en:Chapter 07
00:52:04.997                             : en:Chapter 08
00:59:00.203                             : en:Chapter 09
01:05:17.247                             : en:Chapter 10
01:11:34.957                             : en:Chapter 11
01:18:11.437                             : en:Chapter 12





                                                                                                                                                                                                        
                                                                                                                                                                                                                                                                                                                                                                                                                                                                                                                                                                                                                                                                                                                                                                                                                                                        
b32aa325367488b75f53cbc7ff833e51.zip (28.95 KB)

回复

使用道具 举报

百度云电影论坛 ( 辽ICP备17019482号-3 )

本网站所有资源来自网络,如无意中侵犯了您的权益,请发邮件至 [email protected],立即清除相关链接

GMT+8, 2021-3-3 19:42 , Processed in 0.095233 second(s), 22 queries .

Powered by Discuz! X3.2

© 2001-2013 Comsenz Inc.

快速回复 返回顶部 返回列表