百度云电影论坛

 找回密码
 立即注册

白昼寒光 Cold.Light.of.Day.1989.720p.BluRay.x264-GAZER 4.99GB

[复制链接]

百度云电影 发表于 2021-2-19 13:34:05 | 显示全部楼层 |阅读模式
-->
帖子完整标题:白昼寒光 Cold.Light.of.Day.1989.720p.BluRay.x264-GAZER 4.99GB



[/url]

◎译  名 白昼寒光/Killers Kiss
◎片  名 Cold Light of Day
◎年  代 1989
◎产  地 英国
◎类  别 恐怖 / 传记 / 犯罪
◎语  言 英语
◎上映日期 
◎IMDb评分  5.2/10 from 165 users
◎IMDb链接  
◎豆瓣评分 /10 from 0 users
◎豆瓣链接 
◎片  长 81分钟
◎主  演 鲍勃·弗莱格 Bob Flag

◎标  签 英国电影 | 犯罪 | 恐怖 | 传记 | P-VeniceC入围国际影评人周

◎简  介

  Fictionalized account based on the actions of serial killer Dennis Nilsen.
Video
ID                                       : 1
Format                                   : AVC
Format/Info                              : Advanced Video Codec
Format profile                           :
Format settings                          : CABAC / 12 Ref Frames
Format settings, CABAC                   : Yes
Format settings, Reference frames        : 12 frames
Codec ID                                 : V_MPEG4/ISO/AVC
Duration                                 : 1 h 19 min
Bit rate                                 : 8 111 kb/s
Width                                    : 958 pixels
Height                                   : 720 pixels
Display aspect ratio                     : 4:3
Frame rate mode                          : Constant
Frame rate                               : 23.976 (24000/1001/189150) FPS
Color space                              : YUV
Chroma subsampling                       : 4:2:0
Bit depth                                : 8 bits
Scan type                                : Progressive
Bits/(Pixel*Frame)                       : 0.490
Stream size                              : 4.51 GiB (91%)
Writing library                          : x264 core 161 r3043 59c0609
Encoding settings                        : cabac=1 / ref=12 / deblock=1:-3:-3 / analyse=0x3:0x133 / me=umh / subme=10 / psy=1 / psy_rd=1.50:0.15 / mixed_ref=1 / me_range=24 / chroma_me=1 / trellis=2 / 8x8dct=1 / cqm=0 / deadzone=21,11 / fast_pskip=0 / chroma_qp_offset=-3 / threads=22 / lookahead_threads=3 / sliced_threads=0 / nr=0 / decimate=0 / interlaced=0 / bluray_compat=0 / constrained_intra=0 / bframes=8 / b_pyramid=2 / b_adapt=2 / b_bias=0 / direct=3 / weightb=1 / open_gop=0 / weightp=2 / keyint=250 / keyint_min=23 / scenecut=40 / intra_refresh=0 / rc_lookahead=60 / rc=crf / mbtree=1 / crf=24.0 / qcomp=0.60 / qpmin=0 / qpmax=69 / qpstep=4 / ip_ratio=1.40 / aq=3:0.50
Default                                  : Yes
Forced                                   : No
Color range                              : Limited
Matrix coefficients                      : BT.709

Audio #1
ID                                       : 2
Format                                   : FLAC
Format/Info                              : Free Lossless Audio Codec
Codec ID                                 : A_FLAC
Duration                                 : 1 h 19 min
Bit rate mode                            : Variable
Bit rate                                 : 651 kb/s
Channel(s)                               : 2 channels
Channel layout                           : L R
Sampling rate                            : 48.0 kHz
Frame rate                               : 11.719 FPS (4096 SPF)
Bit depth                                : 24 bits
Compression mode                         : Lossless
Stream size                              : 371 MiB (7%)
Writing library                          : libFLAC 1.3.2 (UTC 2017-01-01)
Language                                 : English
Default                                  : Yes
Forced                                   : No

Audio #2
ID                                       : 3
Format                                   : AAC LC
Format/Info                              : Advanced Audio Codec Low Complexity
Codec ID                                 : A_AAC-2
Duration                                 : 1 h 19 min
Bit rate                                 : 96.0 kb/s
Channel(s)                               : 2 channels
Channel layout                           : L R
Sampling rate                            : 48.0 kHz
Frame rate                               : 46.875 FPS (1024 SPF)
Compression mode                         : Lossy
Delay relative to video                  : 20 ms
Stream size                              : 55.6 MiB (1%)
Title                                    : Commentary
Language                                 : English
Default                                  : No
Forced                                   : No

Audio #3
ID                                       : 4
Format                                   : AAC LC
Format/Info                              : Advanced Audio Codec Low Complexity
Codec ID                                 : A_AAC-2
Duration                                 : 1 h 19 min
Bit rate                                 : 93.5 kb/s
Channel(s)                               : 2 channels
Channel layout                           : L R
Sampling rate                            : 48.0 kHz
Frame rate                               : 46.875 FPS (1024 SPF)
Compression mode                         : Lossy
Delay relative to video                  : 20 ms
Stream size                              : 53.3 MiB (1%)
Title                                    : Commentary
Language                                 : English
Default                                  : No
Forced                                   : No

Text
ID                                       : 5
Format                                   : PGS
Muxing mode                              : zlib
Codec ID                                 : S_HDMV/PGS
Codec ID/Info                            : Picture based subtitle format used on BDs/HD-DVDs
Duration                                 : 1 h 13 min
Bit rate                                 : 18.7 kb/s
Count of elements                        : 1216
Stream size                              : 9.80 MiB (0%)
Title                                    : SDH
Language                                 : English
Default                                  : No
Forced                                   : No

Menu
00:00:00.000                             : en:Chapter 01
00:05:55.397                             : en:Chapter 02
00:11:11.629                             : en:Chapter 03
00:17:04.065                             : en:Chapter 04
00:24:59.123                             : en:Chapter 05
00:31:07.240                             : en:Chapter 06
00:38:15.084                             : en:Chapter 07
00:47:44.612                             : en:Chapter 08
00:54:13.333                             : en:Chapter 09
01:00:47.227                             : en:Chapter 10
01:05:14.786                             : en:Chapter 11
01:12:22.547                             : en:Chapter 12

[/url]



                                                                                                                                                                                                        
                                                                                                                                                                                                                                                                                                                                                                                                                                                                                                                                                                                                                                                                                                                                                                                                                                                        
bc961b5ae529b0ee1ce7696350c2ffdd.zip (50.55 KB)

回复

使用道具 举报

百度云电影论坛 ( 辽ICP备17019482号-3 )

本网站所有资源来自网络,如无意中侵犯了您的权益,请发邮件至 [email protected],立即清除相关链接

GMT+8, 2021-3-3 18:54 , Processed in 0.092074 second(s), 22 queries .

Powered by Discuz! X3.2

© 2001-2013 Comsenz Inc.

快速回复 返回顶部 返回列表