百度云电影论坛

 找回密码
 立即注册

七枭雄 Seven.Sinners.1940.720p.BluRay.x264-ORBS 5.71GB

[复制链接]

百度云电影 发表于 2021-2-19 13:33:54 | 显示全部楼层 |阅读模式
-->
帖子完整标题:七枭雄 Seven.Sinners.1940.720p.BluRay.x264-ORBS 5.71GB



[/url]

◎译  名 七枭雄
◎片  名 Seven Sinners
◎年  代 1940
◎产  地 美国
◎类  别 剧情 / 喜剧 / 冒险
◎语  言 英语
◎上映日期 1940-10-25
◎IMDb评分  6.7/10 from 1202 users
◎IMDb链接  
◎豆瓣评分 /10 from 0 users
◎豆瓣链接 
◎片  长 87分钟
◎导  演 泰·加尼特 Tay Garnett
◎主  演 玛琳·黛德丽 Marlene Dietrich
       约翰·韦恩 John Wayne

◎标  签 美国 | MarleneDietrich | 美国电影 | 1940 | 玛琳·黛德丽 | 1940s | JohnWayne | 爱情

◎简  介

  暂无相关剧情介绍
Video
ID                                       : 1
Format                                   : AVC
Format/Info                              : Advanced Video Codec
Format profile                           :
Format settings                          : CABAC / 11 Ref Frames
Format settings, CABAC                   : Yes
Format settings, Reference frames        : 11 frames
Codec ID                                 : V_MPEG4/ISO/AVC
Duration                                 : 1 h 26 min
Bit rate                                 : 8 648 kb/s
Width                                    : 986 pixels
Height                                   : 720 pixels
Display aspect ratio                     : 4:3
Frame rate mode                          : Constant
Frame rate                               : 23.976 (24000/1001/189150) FPS
Color space                              : YUV
Chroma subsampling                       : 4:2:0
Bit depth                                : 8 bits
Scan type                                : Progressive
Bits/(Pixel*Frame)                       : 0.508
Stream size                              : 5.23 GiB (92%)
Writing library                          : x264 core 161 r3027 4121277
Encoding settings                        : cabac=1 / ref=11 / deblock=1:-3:-3 / analyse=0x3:0x133 / me=umh / subme=10 / psy=1 / psy_rd=1.20:0.00 / mixed_ref=1 / me_range=24 / chroma_me=1 / trellis=2 / 8x8dct=1 / cqm=0 / deadzone=21,11 / fast_pskip=0 / chroma_qp_offset=-2 / threads=6 / lookahead_threads=1 / sliced_threads=0 / nr=0 / decimate=0 / interlaced=0 / bluray_compat=0 / constrained_intra=0 / bframes=8 / b_pyramid=2 / b_adapt=2 / b_bias=0 / direct=3 / weightb=1 / open_gop=0 / weightp=2 / keyint=250 / keyint_min=23 / scenecut=40 / intra_refresh=0 / rc_lookahead=60 / rc=crf / mbtree=1 / crf=22.0 / qcomp=0.60 / qpmin=0 / qpmax=69 / qpstep=4 / ip_ratio=1.40 / aq=3:0.90
Default                                  : Yes
Forced                                   : No
Color range                              : Limited
Matrix coefficients                      : BT.709

Audio #1
ID                                       : 2
Format                                   : FLAC
Format/Info                              : Free Lossless Audio Codec
Codec ID                                 : A_FLAC
Duration                                 : 1 h 26 min
Bit rate mode                            : Variable
Bit rate                                 : 684 kb/s
Channel(s)                               : 2 channels
Channel layout                           : L R
Sampling rate                            : 48.0 kHz
Frame rate                               : 11.719 FPS (4096 SPF)
Bit depth                                : 24 bits
Compression mode                         : Lossless
Stream size                              : 424 MiB (7%)
Writing library                          : libFLAC 1.3.2 (UTC 2017-01-01)
Language                                 : English
Default                                  : Yes
Forced                                   : No

Audio #2
ID                                       : 3
Format                                   : AAC LC
Format/Info                              : Advanced Audio Codec Low Complexity
Codec ID                                 : A_AAC-2
Duration                                 : 1 h 26 min
Bit rate                                 : 96.0 kb/s
Channel(s)                               : 2 channels
Channel layout                           : L R
Sampling rate                            : 48.0 kHz
Frame rate                               : 46.875 FPS (1024 SPF)
Compression mode                         : Lossy
Delay relative to video                  : 20 ms
Stream size                              : 60.6 MiB (1%)
Title                                    : Commentary
Language                                 : English
Default                                  : No
Forced                                   : No

Text
ID                                       : 4
Format                                   : PGS
Muxing mode                              : zlib
Codec ID                                 : S_HDMV/PGS
Codec ID/Info                            : Picture based subtitle format used on BDs/HD-DVDs
Duration                                 : 1 h 25 min
Bit rate                                 : 38.3 kb/s
Count of elements                        : 2518
Stream size                              : 23.4 MiB (0%)
Title                                    : SDH
Language                                 : English
Default                                  : No
Forced                                   : No

Menu
00:00:00.000                             : en:Chapter 01
00:07:50.887                             : en:Chapter 02
00:17:28.881                             : en:Chapter 03
00:28:10.272                             : en:Chapter 04
00:36:39.280                             : en:Chapter 05
00:47:34.727                             : en:Chapter 06
00:56:43.317                             : en:Chapter 07
01:06:54.385                             : en:Chapter 08
01:21:57.496                             : en:Chapter 09





                                                                                                                                                                                                        
                                                                                                                                                                                                                                                                                                                                                                                                                                                                                                                                                                                                                                                                                                                                                                                                                                                        
79bd879127101b087646fa26777f5860.zip (29.24 KB)

回复

使用道具 举报

百度云电影论坛 ( 辽ICP备17019482号-3 )

本网站所有资源来自网络,如无意中侵犯了您的权益,请发邮件至 [email protected],立即清除相关链接

GMT+8, 2021-3-4 07:36 , Processed in 0.104868 second(s), 22 queries .

Powered by Discuz! X3.2

© 2001-2013 Comsenz Inc.

快速回复 返回顶部 返回列表