百度云电影论坛

 找回密码
 立即注册

烈火之前 The.Great.Silence.2020.720p.BluRay.x264-GETiT 2.55GB

[复制链接]

百度云电影 发表于 2021-2-19 13:33:49 | 显示全部楼层 |阅读模式
-->
帖子完整标题:烈火之前 The.Great.Silence.2020.720p.BluRay.x264-GETiT 2.55GB



[/url]

◎译  名 烈火之前/The Great Silence
◎片  名 Before the Fire
◎年  代 2020
◎产  地 美国
◎类  别 剧情 / 动作 / 科幻
◎语  言 英语
◎上映日期 2020-03-07(曼彻斯特电影节)
◎IMDb评分  4/10 from 987 users
◎IMDb链接  
◎豆瓣评分 4.0/10 from 174 users
◎豆瓣链接 
◎导  演 Charlie Buhler
◎编  剧 詹娜·林·亚当斯 Jenna Lyng Adams
◎主  演 詹娜·林·亚当斯 Jenna Lyng Adams
       杰克逊·戴维斯 Jackson Davis
       瑞恩·维吉兰特 Ryan Vigilant
       Charles Hubbell
       蒂姆·德里斯科尔 Tim Driscoll
       M·J·卡密 M.J. Karmi
       丽莎·古德曼 Lisa Goodman
       John Tague
       Charlie Buhler

◎标  签 2020 | 美国 | 灾难 | 剧情 | 病毒,灾难。 | 悬疑 | 科幻 | 温情

◎简  介

  当全球大流行迫使一名电视女演员逃离她的农村故乡时,入侵她的过去被证明像入侵病毒一样危险。
Video
ID                                       : 1
Format                                   : AVC
Format/Info                              : Advanced Video Codec
Format profile                           :
Format settings                          : CABAC / 8 Ref Frames
Format settings, CABAC                   : Yes
Format settings, Reference frames        : 8 frames
Codec ID                                 : V_MPEG4/ISO/AVC
Duration                                 : 1 h 30 min
Bit rate                                 : 3 366 kb/s
Width                                    : 1 280 pixels
Height                                   : 550 pixels
Display aspect ratio                     : 2.35:1
Frame rate mode                          : Constant
Frame rate                               : 23.976 (24000/1001/189150) FPS
Color space                              : YUV
Chroma subsampling                       : 4:2:0
Bit depth                                : 8 bits
Scan type                                : Progressive
Bits/(Pixel*Frame)                       : 0.199
Stream size                              : 2.14 GiB (84%)
Writing library                          : x264 core 161 r3018 db0d417
Encoding settings                        : cabac=1 / ref=8 / deblock=1:-3:-3 / analyse=0x3:0x133 / me=umh / subme=9 / psy=1 / psy_rd=1.00:0.00 / mixed_ref=1 / me_range=16 / chroma_me=1 / trellis=2 / 8x8dct=1 / cqm=0 / deadzone=21,11 / fast_pskip=1 / chroma_qp_offset=-2 / threads=9 / lookahead_threads=1 / sliced_threads=0 / nr=0 / decimate=1 / interlaced=0 / bluray_compat=0 / constrained_intra=0 / bframes=3 / b_pyramid=2 / b_adapt=2 / b_bias=0 / direct=3 / weightb=1 / open_gop=0 / weightp=2 / keyint=250 / keyint_min=23 / scenecut=40 / intra_refresh=0 / rc_lookahead=60 / rc=crf / mbtree=1 / crf=17.0 / qcomp=0.60 / qpmin=0 / qpmax=69 / qpstep=4 / ip_ratio=1.40 / aq=3:0.80
Language                                 : English
Default                                  : Yes
Forced                                   : No
Color range                              : Limited
Matrix coefficients                      : BT.709

Audio
ID                                       : 2
Format                                   : AC-3
Format/Info                              : Audio Coding 3
Commercial name                          : Dolby Digital
Codec ID                                 : A_AC3
Duration                                 : 1 h 30 min
Bit rate mode                            : Constant
Bit rate                                 : 640 kb/s
Channel(s)                               : 6 channels
Channel layout                           : L R C LFE Ls Rs
Sampling rate                            : 48.0 kHz
Frame rate                               : 31.250 FPS (1536 SPF)
Compression mode                         : Lossy
Stream size                              : 416 MiB (16%)
Title                                    : AC3
Language                                 : English
Service kind                             : Complete Main
Default                                  : Yes
Forced                                   : No

Text
ID                                       : 3
Format                                   : PGS
Muxing mode                              : zlib
Codec ID                                 : S_HDMV/PGS
Codec ID/Info                            : Picture based subtitle format used on BDs/HD-DVDs
Duration                                 : 1 h 26 min
Bit rate                                 : 5 427 b/s
Count of elements                        : 1107
Stream size                              : 3.35 MiB (0%)
Title                                    : Subs
Language                                 : German
Default                                  : No
Forced                                   : No

Menu
00:00:00.000                             : en:00:00:00.000
00:07:47.676                             : en:00:07:47.676
00:16:57.850                             : en:00:16:57.850
00:23:04.800                             : en:00:23:04.800
00:29:58.797                             : en:00:29:58.797
00:38:17.587                             : en:00:38:17.587
00:45:56.754                             : en:00:45:56.754
00:53:26.703                             : en:00:53:26.703
01:02:35.001                             : en:01:02:35.001
01:11:48.804                             : en:01:11:48.804
01:20:12.349                             : en:01:20:12.349
01:27:44.092                             : en:01:27:44.092

[/url]



                                                                                                                                                                                                        
                                                                                                                                                                                                                                                                                                                                                                                                                                                                                                                                                                                                                                                                                                                                                                                                                                                        
c29d03f3cb8c80f42f9a2dce9c89cc55.zip (26.2 KB)

回复

使用道具 举报

百度云电影论坛 ( 辽ICP备17019482号-3 )

本网站所有资源来自网络,如无意中侵犯了您的权益,请发邮件至 [email protected],立即清除相关链接

GMT+8, 2021-3-4 07:27 , Processed in 0.096252 second(s), 22 queries .

Powered by Discuz! X3.2

© 2001-2013 Comsenz Inc.

快速回复 返回顶部 返回列表