百度云电影论坛

 找回密码
 立即注册

天呐太棒了/哦耶哦 Yes.God.Yes.2019.1080p.BluRay.x264-SURCODE 5.61GB

[复制链接]

百度云电影 发表于 2021-2-7 13:26:11 | 显示全部楼层 |阅读模式
-->
帖子完整标题:天呐太棒了/哦耶哦 Yes.God.Yes.2019.1080p.BluRay.x264-SURCODE 5.61GB



[/url]

◎译  名 天呐,太棒了/哦耶,哦/是的,上帝,是的
◎片  名 Yes, God, Yes
◎年  代 2019
◎产  地 美国
◎类  别 剧情
◎语  言 英语
◎上映日期 2019-03-08(西南偏南电影节) / 2020-07-24(美国)
◎IMDb评分  6.1/10 from 9088 users
◎IMDb链接  
◎豆瓣评分 5.8/10 from 629 users
◎豆瓣链接 
◎片  长 78分钟
◎导  演 凯伦·梅恩 Karen Maine
◎主  演 娜塔莉·戴尔 Natalia Dyer
       沃尔夫冈·诺沃格拉茨 Wolfgang Novogratz
       苏珊·布莱克威尔 Susan Blackwell
       艾莉莎·博 Alisha Boe
       唐娜·琳·钱普林 Donna Lynne Champlin
       弗兰切丝卡·雷阿莱 Francesca Reale
       蒂莫西·西蒙斯 Timothy Simons

◎标  签 青春 | 美国 | 成长 | 喜剧 | 2019 | 剧情 | 美国电影 | 电影

◎简  介

  故事发生在21世纪初,因为网络聊天的兴起,一个天主教学校的少女发现自己的性意识萌动,一方面要她要努力抑制自己的欲望怕被上帝惩罚,另一方面有些东西是控制不住的。
Video
ID                                       : 1
Format                                   : AVC
Format/Info                              : Advanced Video Codec
Format profile                           :
Format settings                          : CABAC / 4 Ref Frames
Format settings, CABAC                   : Yes
Format settings, Reference frames        : 4 frames
Codec ID                                 : V_MPEG4/ISO/AVC
Duration                                 : 1 h 17 min
Bit rate                                 : 7 118 kb/s
Width                                    : 1 920 pixels
Height                                   : 1 040 pixels
Display aspect ratio                     : 1.85:1
Frame rate mode                          : Constant
Frame rate                               : 24.000 FPS
Color space                              : YUV
Chroma subsampling                       : 4:2:0
Bit depth                                : 8 bits
Scan type                                : Progressive
Bits/(Pixel*Frame)                       : 0.149
Stream size                              : 3.85 GiB (69%)
Writing library                          : x264 core 161 r3043 59c0609
Encoding settings                        : cabac=1 / ref=4 / deblock=1:-3:-3 / analyse=0x3:0x133 / me=umh / subme=9 / psy=1 / psy_rd=1.00:0.00 / mixed_ref=1 / me_range=16 / chroma_me=1 / trellis=2 / 8x8dct=1 / cqm=0 / deadzone=21,11 / fast_pskip=0 / chroma_qp_offset=-2 / threads=32 / lookahead_threads=2 / sliced_threads=0 / nr=0 / decimate=1 / interlaced=0 / bluray_compat=0 / constrained_intra=0 / bframes=3 / b_pyramid=2 / b_adapt=2 / b_bias=0 / direct=3 / weightb=1 / open_gop=0 / weightp=2 / keyint=250 / keyint_min=24 / scenecut=40 / intra_refresh=0 / rc_lookahead=60 / rc=crf / mbtree=1 / crf=17.0 / qcomp=0.60 / qpmin=0 / qpmax=69 / qpstep=4 / ip_ratio=1.40 / aq=1:1.00
Language                                 : English
Default                                  : Yes
Forced                                   : No

Audio
ID                                       : 2
Format                                   : DTS XLL
Format/Info                              : Digital Theater Systems
Commercial name                          : DTS-HD Master Audio
Codec ID                                 : A_DTS
Duration                                 : 1 h 17 min
Bit rate mode                            : Variable
Bit rate                                 : 3 236 kb/s
Channel(s)                               : 6 channels
Channel layout                           : C L R Ls Rs LFE
Sampling rate                            : 48.0 kHz
Frame rate                               : 93.750 FPS (512 SPF)
Bit depth                                : 24 bits
Compression mode                         : Lossless
Stream size                              : 1.75 GiB (31%)
Language                                 : English
Default                                  : Yes
Forced                                   : No

Text #1
ID                                       : 3
Format                                   : UTF-8
Codec ID                                 : S_TEXT/UTF8
Codec ID/Info                            : UTF-8 Plain Text
Duration                                 : 1 h 1 min
Bit rate                                 : 0 b/s
Count of elements                        : 11
Stream size                              : 389 Bytes (0%)
Title                                    : forced srt
Language                                 : English
Default                                  : Yes
Forced                                   : Yes

Text #2
ID                                       : 4
Format                                   : PGS
Muxing mode                              : zlib
Codec ID                                 : S_HDMV/PGS
Codec ID/Info                            : Picture based subtitle format used on BDs/HD-DVDs
Duration                                 : 1 h 1 min
Bit rate                                 : 502 b/s
Count of elements                        : 22
Stream size                              : 225 KiB (0%)
Title                                    : forced
Language                                 : English
Default                                  : No
Forced                                   : No

Text #3
ID                                       : 5
Format                                   : PGS
Muxing mode                              : zlib
Codec ID                                 : S_HDMV/PGS
Codec ID/Info                            : Picture based subtitle format used on BDs/HD-DVDs
Duration                                 : 1 h 11 min
Bit rate                                 : 31.7 kb/s
Count of elements                        : 1542
Stream size                              : 16.2 MiB (0%)
Language                                 : German
Default                                  : No
Forced                                   : No

Text #4
ID                                       : 6
Format                                   : PGS
Muxing mode                              : zlib
Codec ID                                 : S_HDMV/PGS
Codec ID/Info                            : Picture based subtitle format used on BDs/HD-DVDs
Duration                                 : 58 min 59 s
Bit rate                                 : 412 b/s
Count of elements                        : 20
Stream size                              : 178 KiB (0%)
Title                                    : forced
Language                                 : German
Default                                  : No
Forced                                   : No

Menu
00:00:00.000                             : en:Chapter 01
00:04:29.125                             : en:Chapter 02
00:09:00.833                             : en:Chapter 03
00:12:43.000                             : en:Chapter 04
00:15:53.583                             : en:Chapter 05
00:19:34.333                             : en:Chapter 06
00:22:57.042                             : en:Chapter 07
00:26:33.542                             : en:Chapter 08
00:31:38.167                             : en:Chapter 09
00:35:22.958                             : en:Chapter 10
00:41:19.958                             : en:Chapter 11
00:45:49.375                             : en:Chapter 12
00:52:26.917                             : en:Chapter 13
01:01:02.042                             : en:Chapter 14
01:07:25.250                             : en:Chapter 15
01:12:36.250                             : en:Chapter 16

[/url][/url][/url]



                                                                                                                                                                                                        
                                                                                                                                                                                                                                                                                                                                                                                                                                                                                                                                                                                                                                                                                                                                                                                                                                                        
0682444836ffe4bc3c6ad6666bd1dfe2.zip (28.72 KB)

回复

使用道具 举报

百度云电影论坛 ( 辽ICP备17019482号-3 )

本网站所有资源来自网络,如无意中侵犯了您的权益,请发邮件至 [email protected],立即清除相关链接

GMT+8, 2021-3-8 08:21 , Processed in 0.093368 second(s), 22 queries .

Powered by Discuz! X3.2

© 2001-2013 Comsenz Inc.

快速回复 返回顶部 返回列表