百度云电影论坛

 找回密码
 立即注册

恐怖之夜:噩梦电台 A.Night.Of.Horror.Nightmare.Radio.2019.720p.BluRay....

[复制链接]

百度云电影 发表于 2021-1-13 08:53:55 | 显示全部楼层 |阅读模式
-->
帖子完整标题:恐怖之夜:噩梦电台 A.Night.Of.Horror.Nightmare.Radio.2019.720p.BluRay.x264-GETiT 1.84GB





◎译  名 恐怖之夜:噩梦电台/nightmare radio/噩梦电台/恐惧之夜:恶梦广播(台)
◎片  名 A Night of Horror: Nightmare Radio
◎年  代 2019
◎产  地 阿根廷,新西兰,英国
◎类  别 恐怖
◎语  言 英语
◎上映日期 2019-10-25(英国)
◎IMDb评分  5.1/10 from 1366 users
◎IMDb链接  
◎豆瓣评分 5.9/10 from 2336 users
◎豆瓣链接 
◎片  长 100分钟
◎导  演 奥利弗·帕克 Oliver Park / 路西安诺·欧纳提 Luciano Onetti
◎主  演 Ian Costello
       Michelle Costello
       克拉拉·科瓦西奇 Clara Kovacic
       Kera O'Bryon
       James Wright
       米歇尔·卡斯特罗 Michelle Costello

◎标  签 恐怖 | 惊悚 | 恐怖片 | 恐怖惊悚悬疑重口血腥 | 分段式 | 新西兰 | 2019 | 新西兰电影

◎简  介

  恐怖之夜:噩梦电台是新西兰黑曼达拉电影公司制作的一部新的恐怖选集。
  
  罗德主持一个专门讨论恐怖的广播节目。直到突然,播音员开始收到一个拼命求救的孩子的奇怪电话。起初,他认为这是一个坏笑话,直到他发现事实并非如此。这些电话隐藏着一个黑暗的秘密...
Video
ID                                       : 1
Format                                   : AVC
Format/Info                              : Advanced Video Codec
Format profile                           :
Format settings                          : CABAC / 8 Ref Frames
Format settings, CABAC                   : Yes
Format settings, Reference frames        : 8 frames
Codec ID                                 : V_MPEG4/ISO/AVC
Duration                                 : 1 h 44 min
Bit rate                                 : 1 859 kb/s
Width                                    : 1 280 pixels
Height                                   : 536 pixels
Display aspect ratio                     : 2.40:1
Frame rate mode                          : Constant
Frame rate                               : 24.000 FPS
Color space                              : YUV
Chroma subsampling                       : 4:2:0
Bit depth                                : 8 bits
Scan type                                : Progressive
Bits/(Pixel*Frame)                       : 0.113
Stream size                              : 1.36 GiB (74%)
Writing library                          : x264 core 161 r3018 db0d417
Encoding settings                        : cabac=1 / ref=8 / deblock=1:-3:-3 / analyse=0x3:0x133 / me=umh / subme=9 / psy=1 / psy_rd=1.00:0.00 / mixed_ref=1 / me_range=16 / chroma_me=1 / trellis=2 / 8x8dct=1 / cqm=0 / deadzone=21,11 / fast_pskip=1 / chroma_qp_offset=-2 / threads=12 / lookahead_threads=1 / sliced_threads=0 / nr=0 / decimate=1 / interlaced=0 / bluray_compat=0 / constrained_intra=0 / bframes=3 / b_pyramid=2 / b_adapt=2 / b_bias=0 / direct=3 / weightb=1 / open_gop=0 / weightp=2 / keyint=250 / keyint_min=24 / scenecut=40 / intra_refresh=0 / rc_lookahead=60 / rc=crf / mbtree=1 / crf=17.0 / qcomp=0.60 / qpmin=0 / qpmax=69 / qpstep=4 / ip_ratio=1.40 / aq=3:0.80
Language                                 : English
Default                                  : Yes
Forced                                   : No
Color range                              : Limited
Matrix coefficients                      : BT.709

Audio
ID                                       : 2
Format                                   : AC-3
Format/Info                              : Audio Coding 3
Commercial name                          : Dolby Digital
Codec ID                                 : A_AC3
Duration                                 : 1 h 44 min
Bit rate mode                            : Constant
Bit rate                                 : 640 kb/s
Channel(s)                               : 2 channels
Channel layout                           : L R
Sampling rate                            : 48.0 kHz
Frame rate                               : 31.250 FPS (1536 SPF)
Compression mode                         : Lossy
Stream size                              : 479 MiB (25%)
Title                                    : ac3
Language                                 : English
Service kind                             : Complete Main
Default                                  : Yes
Forced                                   : No

Text
ID                                       : 3
Format                                   : PGS
Muxing mode                              : zlib
Codec ID                                 : S_HDMV/PGS
Codec ID/Info                            : Picture based subtitle format used on BDs/HD-DVDs
Duration                                 : 1 h 32 min
Bit rate                                 : 11.9 kb/s
Count of elements                        : 1244
Stream size                              : 7.92 MiB (0%)
Title                                    : sub
Language                                 : German
Default                                  : No
Forced                                   : No

Menu
00:00:00.000                             : en:00:00:00.000
00:04:25.625                             : en:00:04:25.625
00:16:09.000                             : en:00:16:09.000
00:28:22.500                             : en:00:28:22.500
00:42:10.000                             : en:00:42:10.000
00:56:36.000                             : en:00:56:36.000
01:04:02.542                             : en:01:04:02.542
01:15:15.000                             : en:01:15:15.000
01:30:08.000                             : en:01:30:08.000
01:33:14.625                             : en:01:33:14.625





                                                                                                                                                                                                        
                                                                                                                                                                                                                                                                                                                                                                                                                                                                                                                                                                                                                                                                                                                                                                                                                                                        
4029d153eace9c1e3bc0600a87a21451.zip (19.11 KB)

回复

使用道具 举报

百度云电影论坛 ( 辽ICP备17019482号-3 )

本网站所有资源来自网络,如无意中侵犯了您的权益,请发邮件至 [email protected],立即清除相关链接

GMT+8, 2021-1-28 19:44 , Processed in 0.108684 second(s), 22 queries .

Powered by Discuz! X3.2

© 2001-2013 Comsenz Inc.

快速回复 返回顶部 返回列表