百度云电影论坛

 找回密码
 立即注册

天际行者 Spacewalker.2017.DUBBED.720p.BluRay.x264.DTS-MT 5.62GB

[复制链接]

百度云电影 发表于 2021-1-13 08:53:52 | 显示全部楼层 |阅读模式
-->
帖子完整标题:天际行者 Spacewalker.2017.DUBBED.720p.BluRay.x264.DTS-MT 5.62GB





◎译  名 天际行者/The Age of Pioneers/The Spacewalker/Vremya pervykh/太空漫步(台)/太空第一步
◎片  名 Время первых
◎年  代 2017
◎产  地 俄罗斯
◎类  别 剧情 / 历史 / 冒险
◎语  言 俄语
◎上映日期 2017-04-06(俄罗斯) / 2018(中国大陆)
◎IMDb评分  7.3/10 from 5951 users
◎IMDb链接  
◎豆瓣评分 7.9/10 from 9653 users
◎豆瓣链接 
◎片  长 140分钟
◎导  演 德米特里·基谢廖夫 Dmitriy Kiselev
◎编  剧 谢尔盖·卡鲁扎诺夫 Sergey Kaluzhanov / 尤里·科罗特科夫 Yuriy Korotkov / 奥列格·波戈金 Oleg Pogodin
◎主  演 叶甫盖尼·米罗诺夫 Yevgeny Mironov
       康斯坦丁·哈宾斯基 Konstantin Khabensky
       弗拉基米尔·伊利因 Vladimir Ilin
       亚历山德拉·乌尔苏利亚科 Aleksandra Ursulyak
       叶莲娜·维克托罗夫娜·帕诺娃 Elena Panova
       尤里·伊茨科夫 Yuriy Itskov
       艾戈·莫罗佐夫 Egor Morozov
       亚历山大·伊林 Aleksandr Ilin
       维塔丽雅·科尔尼扬科 Vitaliya Kornienko
       阿纳托利·科特尼欧夫 Anatoliy Kotenyov
       弗拉基米尔·贝格玛 Vladimir Begma

◎标  签 太空 | 俄罗斯 | 真实事件改编 | 历史 | 科幻 | 苏俄 | 冒险 | 剧情

◎简  介

  1965年,正值美国和俄罗斯先后准备向太空发射载人飞船之际,指挥官谢尔盖·科罗廖夫决定选派飞行员阿列克谢?列昂诺夫和帕维尔·贝尔耶夫执行首飞任务,提前于原计划两年执行。于此过程中,无论是两名宇航员还是指挥官和无数参与者,都面临着极大的压力和风险。
  
  万众瞩目之下,媒体同步播出了发射过程,当阿列克谢打开舱门迈出太空第一步之际,整个苏联都为之沸腾。然而在阿列克谢准备返回的时候太空服失灵,紧接着飞船舱门无法自动关闭……让他险些命丧太空…….
Video
ID                                       : 1
Format                                   : AVC
Format/Info                              : Advanced Video Codec
Format profile                           :
Format settings                          : CABAC / 12 Ref Frames
Format settings, CABAC                   : Yes
Format settings, Reference frames        : 12 frames
Codec ID                                 : V_MPEG4/ISO/AVC
Duration                                 : 2 h 17 min
Bit rate                                 : 4 353 kb/s
Width                                    : 1 280 pixels
Height                                   : 542 pixels
Display aspect ratio                     : 2.35:1
Frame rate mode                          : Constant
Frame rate                               : 23.976 (24000/1001/189150) FPS
Color space                              : YUV
Chroma subsampling                       : 4:2:0
Bit depth                                : 8 bits
Scan type                                : Progressive
Bits/(Pixel*Frame)                       : 0.262
Stream size                              : 4.17 GiB (74%)
Writing library                          : x264 core 157 r2938 2b00a84  Mod
Encoding settings                        : cabac=1 / ref=12 / deblock=1:-3:-3 / analyse=0x3:0x133 / me=umh / subme=10 / psy=1 / psy_rd=1.05:0.00 / mixed_ref=1 / me_range=32 / chroma_me=1 / trellis=2 / 8x8dct=1 / cqm=0 / deadzone=21,11 / fast_pskip=0 / chroma_qp_offset=-2 / threads=12 / lookahead_threads=2 / sliced_threads=0 / nr=0 / decimate=0 / interlaced=0 / bluray_compat=0 / constrained_intra=0 / bframes=8 / b_pyramid=2 / b_adapt=2 / b_bias=0 / direct=3 / weightb=1 / open_gop=0 / weightp=2 / keyint=250 / keyint_min=24 / scenecut=40 / intra_refresh=0 / rc_lookahead=250 / rc=crf / mbtree=0 / crf=16.8 / qcomp=0.60 / qpmin=0 / qpmax=69 / qpstep=4 / vbv_maxrate=62500 / vbv_bufsize=78125 / crf_max=0.0 / nal_hrd=none / filler=0 / ip_ratio=1.30 / pb_ratio=1.20 / aq=3:0.80
Language                                 : English
Default                                  : Yes
Forced                                   : No
Color range                              : Limited
Color primaries                          : BT.709
Matrix coefficients                      : BT.709

Audio
ID                                       : 2
Format                                   : DTS
Format/Info                              : Digital Theater Systems
Codec ID                                 : A_DTS
Duration                                 : 2 h 17 min
Bit rate mode                            : Constant
Bit rate                                 : 1 509 kb/s
Channel(s)                               : 6 channels
Channel layout                           : C L R Ls Rs LFE
Sampling rate                            : 48.0 kHz
Frame rate                               : 93.750 FPS (512 SPF)
Bit depth                                : 24 bits
Compression mode                         : Lossy
Stream size                              : 1.45 GiB (26%)
Language                                 : English
Default                                  : Yes
Forced                                   : No

Text
ID                                       : 3
Format                                   : UTF-8
Codec ID                                 : S_TEXT/UTF8
Codec ID/Info                            : UTF-8 Plain Text
Duration                                 : 2 h 11 min
Bit rate                                 : 49 b/s
Count of elements                        : 1183
Stream size                              : 47.5 KiB (0%)
Title                                    : SRT
Language                                 : English
Default                                  : Yes
Forced                                   : No

Menu
00:00:00.000                             : en:Chapter 01
00:09:52.884                             : en:Chapter 02
00:18:58.804                             : en:Chapter 03
00:30:17.691                             : en:Chapter 04
00:41:30.071                             : en:Chapter 05
00:51:43.559                             : en:Chapter 06
01:00:30.418                             : en:Chapter 07
01:09:56.943                             : en:Chapter 08
01:18:39.173                             : en:Chapter 09
01:30:16.536                             : en:Chapter 10
01:39:25.793                             : en:Chapter 11
01:49:26.810                             : en:Chapter 12
02:00:36.104                             : en:Chapter 13
02:12:01.205                             : en:Chapter 14





                                                                                                                                                                                                        
                                                                                                                                                                                                                                                                                                                                                                                                                                                                                                                                                                                                                                                                                                                                                                                                                                                        
beeeaddbe78ca6666a77620ab48ee1e8.zip (28.74 KB)

回复

使用道具 举报

百度云电影论坛 ( 辽ICP备17019482号-3 )

本网站所有资源来自网络,如无意中侵犯了您的权益,请发邮件至 [email protected],立即清除相关链接

GMT+8, 2021-1-28 19:09 , Processed in 0.094713 second(s), 22 queries .

Powered by Discuz! X3.2

© 2001-2013 Comsenz Inc.

快速回复 返回顶部 返回列表