百度云电影论坛

 找回密码
 立即注册

毒贩大妈 Mama.Weed.2020.FRENCH.1080p.BluRay.x264-EA 11.27GB

[复制链接]

-->
帖子完整标题:毒贩大妈 Mama.Weed.2020.FRENCH.1080p.BluRay.x264-EA 11.27GB





◎译  名 毒贩大妈/Mama Weed/老妪好嘢/藥頭大媽(台)
◎片  名 La Daronne
◎年  代 2020
◎产  地 法国
◎类  别 喜剧 / 犯罪
◎语  言 法语
◎上映日期 2020-01-16(阿尔普迪埃喜剧电影节) / 2020-09-09(法国)
◎IMDb评分  6/10 from 484 users
◎IMDb链接  
◎豆瓣评分 7.0/10 from 60 users
◎豆瓣链接 
◎片  长 104分钟
◎导  演 让-保尔·萨罗米 Jean-Paul Salomé
◎编  剧 让-保尔·萨罗米 Jean-Paul Salomé
◎主  演 伊莎贝尔·于佩尔 Isabelle Huppert
       伊波利特·吉拉尔多 Hippolyte Girardot
       莉莲娜·罗维埃 Liliane Rovère
       伊里斯·布里 Iris Bry
       卡梅尔·古恩福 Kamel Guenfoud
       亚辛·侯伊卡 Yasin Houicha

◎标  签 法国 | 喜剧 | 犯罪 | 法国电影 | IsabelleHuppert | 伊莎贝尔·于佩尔 | 2020 | 于佩尔

◎简  介

  故事讲述于佩尔饰演一名为巴黎禁毒小组工作的法语-阿拉伯语翻译。一天她被派遣帮助一个女人陷入困境的儿子,却因此卷入了一场失败的毒品交易,获得了一堆大麻。在坚持与禁毒小队工作的同时,这名翻译悄然走向另一方,成为了知名的毒贩。
Video
ID                                       : 1
Format                                   : AVC
Format/Info                              : Advanced Video Codec
Format profile                           :
Format settings                          : CABAC / 5 Ref Frames
Format settings, CABAC                   : Yes
Format settings, Reference frames        : 5 frames
Codec ID                                 : V_MPEG4/ISO/AVC
Duration                                 : 1 h 45 min
Bit rate                                 : 14.2 Mb/s
Width                                    : 1 920 pixels
Height                                   : 804 pixels
Display aspect ratio                     : 2.40:1
Frame rate mode                          : Constant
Frame rate                               : 23.976 (24000/1001/189150) FPS
Color space                              : YUV
Chroma subsampling                       : 4:2:0
Bit depth                                : 8 bits
Scan type                                : Progressive
Bits/(Pixel*Frame)                       : 0.385
Stream size                              : 10.5 GiB (93%)
Title                                    : -EA
Writing library                          : x264 core 161 r3027+53 2464769 t_mod_New [(8 & 10) X86_64]
Encoding settings                        : cabac=1 / ref=5 / deblock=1:-3:-3 / analyse=0x3:0x133 / me=umh / subme=10 / psy=1 / fade_compensate=0.00 / psy_rd=0.97:0.00 / mixed_ref=1 / me_range=32 / chroma_me=1 / trellis=2 / 8x8dct=1 / cqm=0 / deadzone=21,11 / fast_pskip=0 / chroma_qp_offset=-2 / threads=18 / lookahead_threads=3 / sliced_threads=0 / nr=0 / decimate=0 / interlaced=0 / bluray_compat=0 / constrained_intra=0 / fgo=0 / bframes=8 / b_pyramid=2 / b_adapt=2 / b_bias=0 / direct=3 / weightb=1 / open_gop=0 / weightp=2 / keyint=240 / keyint_min=23 / scenecut=40 / intra_refresh=0 / rc_lookahead=60 / rc=crf / mbtree=0 / crf=15.8500 / qcomp=0.65 / qpmin=0:0:0 / qpmax=69:69:69 / qpstep=4 / vbv_maxrate=62500 / vbv_bufsize=78125 / crf_max=0.0 / nal_hrd=none / filler=0 / ip_ratio=1.35 / pb_ratio=1.25 / aq=3:0.85 / aq-sensitivity=10.00 / aq-factor=1.00:1.00:1.00 / aq2=0 / aq3=0
Language                                 : French
Default                                  : Yes
Forced                                   : No
Color range                              : Limited
Color primaries                          : BT.709
Transfer characteristics                 : BT.709
Matrix coefficients                      : BT.709

Audio #1
ID                                       : 2
Format                                   : E-AC-3
Format/Info                              : Enhanced AC-3
Commercial name                          : Dolby Digital Plus
Codec ID                                 : A_EAC3
Duration                                 : 1 h 45 min
Bit rate mode                            : Constant
Bit rate                                 : 1 023 kb/s
Channel(s)                               : 6 channels
Channel layout                           : L R C LFE Ls Rs
Sampling rate                            : 48.0 kHz
Frame rate                               : 93.750 FPS (512 SPF)
Compression mode                         : Lossy
Stream size                              : 770 MiB (7%)
Language                                 : French
Service kind                             : Complete Main
Default                                  : Yes
Forced                                   : Yes

Audio #2
ID                                       : 3
Format                                   : AAC LC SBR
Format/Info                              : Advanced Audio Codec Low Complexity with Spectral Band Replication
Commercial name                          : HE-AAC
Format settings                          : Explicit
Codec ID                                 : A_AAC-2
Duration                                 : 1 h 45 min
Bit rate                                 : 64.0 kb/s
Channel(s)                               : 2 channels
Channel layout                           : L R
Sampling rate                            : 48.0 kHz
Frame rate                               : 23.438 FPS (2048 SPF)
Compression mode                         : Lossy
Delay relative to video                  : 31 ms
Stream size                              : 48.2 MiB (0%)
Title                                    : Commentary with Director Jean-Paul Salomé
Language                                 : French
Default                                  : No
Forced                                   : No

Text #1
ID                                       : 4
Format                                   : UTF-8
Codec ID                                 : S_TEXT/UTF8
Codec ID/Info                            : UTF-8 Plain Text
Duration                                 : 1 h 43 min
Bit rate                                 : 42 b/s
Count of elements                        : 1192
Stream size                              : 32.6 KiB (0%)
Title                                    : srt
Language                                 : English
Default                                  : Yes
Forced                                   : Yes

Text #2
ID                                       : 5
Format                                   : PGS
Muxing mode                              : zlib
Codec ID                                 : S_HDMV/PGS
Codec ID/Info                            : Picture based subtitle format used on BDs/HD-DVDs
Duration                                 : 1 h 22 min
Bit rate                                 : 2 615 b/s
Count of elements                        : 198
Stream size                              : 1.55 MiB (0%)
Title                                    : sup
Language                                 : French
Default                                  : No
Forced                                   : No

Text #3
ID                                       : 6
Format                                   : PGS
Muxing mode                              : zlib
Codec ID                                 : S_HDMV/PGS
Codec ID/Info                            : Picture based subtitle format used on BDs/HD-DVDs
Duration                                 : 1 h 44 min
Bit rate                                 : 30.1 kb/s
Count of elements                        : 3057
Stream size                              : 22.6 MiB (0%)
Title                                    : sup HoH
Language                                 : French
Default                                  : No
Forced                                   : No

Menu #1
00:00:00.000                             : :Chapter 01
00:07:51.346                             : :Chapter 02
00:15:56.581                             : :Chapter 03
00:23:09.054                             : :Chapter 04
00:31:07.824                             : :Chapter 05
00:39:49.971                             : :Chapter 06
00:47:00.401                             : :Chapter 07
00:55:30.911                             : :Chapter 08
01:05:44.065                             : :Chapter 09
01:14:08.444                             : :Chapter 10
01:23:14.823                             : :Chapter 11
01:31:47.377                             : :Chapter 12
01:40:11.964                             : :Chapter 13

Menu #2
00:00:00.097                             : en:Chapter 01





                                                                                                                                                                                                        
                                                                                                                                                                                                                                                                                                                                                                                                                                                                                                                                                                                                                                                                                                                                                                                                                                                        
3fdcbcfff1fb004953f215bc1578e45e.zip (57.02 KB)

回复

使用道具 举报

百度云电影论坛 ( 辽ICP备17019482号-3 )

本网站所有资源来自网络,如无意中侵犯了您的权益,请发邮件至 [email protected],立即清除相关链接

GMT+8, 2021-1-20 04:39 , Processed in 0.110592 second(s), 22 queries .

Powered by Discuz! X3.2

© 2001-2013 Comsenz Inc.

快速回复 返回顶部 返回列表