百度云电影论坛

 找回密码
 立即注册

麦克斯·克劳德的星际冒险 The.Intergalactic.Adventures.of.Max.Cloud.... ...

[复制链接]

百度云电影 发表于 2021-1-13 08:53:45 | 显示全部楼层 |阅读模式
-->
帖子完整标题:麦克斯·克劳德的星际冒险 The.Intergalactic.Adventures.of.Max.Cloud.2020.1080p.BluRay.x264.DTS-MT 8.56GB





◎译  名 麦克斯·克劳德的星际冒险/Max Cloud
◎片  名 The Intergalactic Adventures of Max Cloud
◎年  代 2020
◎产  地 英国
◎类  别 喜剧 / 动作 / 科幻
◎语  言 英语
◎上映日期 2020-12-18(美国)
◎IMDb评分  5.8/10 from 1986 users
◎IMDb链接  
◎豆瓣评分 4.9/10 from 136 users
◎豆瓣链接 
◎片  长 88分钟
◎导  演 马丁·欧文 Martin Owen
◎编  剧 马丁·欧文 Martin Owen / 萨莉·柯莱特 Sally Collett
◎主  演 斯科特·阿金斯 Scott Adkins
       约翰·汉纳 John Hannah
       拉什纳·林奇 Lashana Lynch
       汤米·弗拉纳根 Tommy Flanagan
       艾略特·詹姆斯·朗格里奇 Elliot James Langridge
       弗朗茨·德拉姆 Franz Drameh
       山姆·哈兹尔丁 Sam Hazeldine
       伊莎贝尔·艾伦 Isabelle Allen
       杰森·马扎 Jason Maza
       露丝·霍洛克斯 Ruth Horrocks
       安迪·奥修 Andi Osho
       萨莉·柯莱特 Sally Collett

◎标  签 科幻 | 动作 | 游戏 | 喜剧 | 斯科特阿金斯 | 美国 | 星际 | 2020

◎简  介

  一艘太空巡洋舰坠毁在了黑纳斯星球上,这是一个关押着整个银河系中最邪恶危险罪犯的星际监狱。大部分队员都在这场事故中遇难,全队只剩下飞船的驾驶员——星际英雄马克斯·克劳德,倒霉的厨师杰克和极不配合的指挥官雷克西。他们的任务很简单,那就是等待救援人员的到来,同时尽自己最大的努力阻止监狱中的囚犯登船,然而这可是马克斯·克劳德,他总有办法把事情复杂化。
Video
ID                                       : 1
Format                                   : AVC
Format/Info                              : Advanced Video Codec
Format profile                           :
Format settings                          : CABAC / 5 Ref Frames
Format settings, CABAC                   : Yes
Format settings, Reference frames        : 5 frames
Codec ID                                 : V_MPEG4/ISO/AVC
Duration                                 : 1 h 28 min
Bit rate                                 : 12.3 Mb/s
Width                                    : 1 920 pixels
Height                                   : 804 pixels
Display aspect ratio                     : 2.40:1
Frame rate mode                          : Constant
Frame rate                               : 23.976 (24000/1001/189150) FPS
Color space                              : YUV
Chroma subsampling                       : 4:2:0
Bit depth                                : 8 bits
Scan type                                : Progressive
Bits/(Pixel*Frame)                       : 0.332
Stream size                              : 7.62 GiB (89%)
Writing library                          : x264 core 157 r2938 2b00a84  Mod
Encoding settings                        : cabac=1 / ref=5 / deblock=1:-3:-3 / analyse=0x3:0x133 / me=umh / subme=10 / psy=1 / psy_rd=1.05:0.00 / mixed_ref=1 / me_range=32 / chroma_me=1 / trellis=2 / 8x8dct=1 / cqm=0 / deadzone=21,11 / fast_pskip=0 / chroma_qp_offset=-2 / threads=12 / lookahead_threads=2 / sliced_threads=0 / nr=0 / decimate=0 / interlaced=0 / bluray_compat=0 / constrained_intra=0 / bframes=8 / b_pyramid=2 / b_adapt=2 / b_bias=0 / direct=3 / weightb=1 / open_gop=0 / weightp=2 / keyint=250 / keyint_min=24 / scenecut=40 / intra_refresh=0 / rc_lookahead=250 / rc=crf / mbtree=0 / crf=16.8 / qcomp=0.60 / qpmin=0 / qpmax=69 / qpstep=4 / vbv_maxrate=62500 / vbv_bufsize=78125 / crf_max=0.0 / nal_hrd=none / filler=0 / ip_ratio=1.30 / pb_ratio=1.20 / aq=3:0.80
Language                                 : English
Default                                  : Yes
Forced                                   : No
Color range                              : Limited
Color primaries                          : BT.709
Matrix coefficients                      : BT.709

Audio
ID                                       : 2
Format                                   : DTS
Format/Info                              : Digital Theater Systems
Codec ID                                 : A_DTS
Duration                                 : 1 h 28 min
Bit rate mode                            : Constant
Bit rate                                 : 1 509 kb/s
Channel(s)                               : 6 channels
Channel layout                           : C L R Ls Rs LFE
Sampling rate                            : 48.0 kHz
Frame rate                               : 93.750 FPS (512 SPF)
Bit depth                                : 16 bits
Compression mode                         : Lossy
Stream size                              : 958 MiB (11%)
Language                                 : English
Default                                  : Yes
Forced                                   : No

Text
ID                                       : 3
Format                                   : UTF-8
Codec ID                                 : S_TEXT/UTF8
Codec ID/Info                            : UTF-8 Plain Text
Duration                                 : 1 h 26 min
Bit rate                                 : 57 b/s
Count of elements                        : 1417
Stream size                              : 36.4 KiB (0%)
Language                                 : English
Default                                  : Yes
Forced                                   : No

Menu
00:00:00.000                             : en:Chapter 01
00:06:05.657                             : en:Chapter 02
00:11:57.383                             : en:Chapter 03
00:23:49.345                             : en:Chapter 04
00:32:47.632                             : en:Chapter 05
00:41:41.833                             : en:Chapter 06
00:50:15.304                             : en:Chapter 07
01:00:42.264                             : en:Chapter 08
01:12:23.798                             : en:Chapter 09
01:23:36.720                             : en:Chapter 10





                                                                                                                                                                                                        
                                                                                                                                                                                                                                                                                                                                                                                                                                                                                                                                                                                                                                                                                                                                                                                                                                                        
5d2e55970bd76d0ead210d72e644012e.zip (43.5 KB)

回复

使用道具 举报

百度云电影论坛 ( 辽ICP备17019482号-3 )

本网站所有资源来自网络,如无意中侵犯了您的权益,请发邮件至 [email protected],立即清除相关链接

GMT+8, 2021-1-24 03:57 , Processed in 0.108411 second(s), 22 queries .

Powered by Discuz! X3.2

© 2001-2013 Comsenz Inc.

快速回复 返回顶部 返回列表