百度云电影论坛

 找回密码
 立即注册

暗夜凶光 Dark.Light.2019.1080p.BluRay.x264.DTS-FGT 8.14GB

[复制链接]

百度云电影 发表于 2021-1-13 08:53:37 | 显示全部楼层 |阅读模式
-->
帖子完整标题:暗夜凶光 Dark.Light.2019.1080p.BluRay.x264.DTS-FGT 8.14GB





◎译  名 暗夜凶光
◎片  名 Dark Light
◎年  代 2019
◎产  地 美国
◎类  别 科幻 / 惊悚 / 恐怖
◎语  言 英语
◎上映日期 2019-12-06(美国)
◎IMDb评分  4.6/10 from 2050 users
◎IMDb链接  
◎豆瓣评分 4.2/10 from 232 users
◎豆瓣链接 
◎片  长 90分钟
◎主  演 杰西卡·马德森 Jessica Madsen
       本·苏利文 Ben Sullivan

◎标  签 恐怖 | 惊悚 | 美国 | 科幻 | 2019 | 美国电影 | 奇幻 | 美國

◎简  介

  随着她母亲的去世和痛苦的离婚,安妮和她的女儿搬回她童年的家。起初一切似乎很好,但悲剧再次发生时,在一个雾蒙蒙的晚上,艾米丽失踪了从她的卧室。安妮声称她从黑暗中看到了什么东西,并带走了艾米丽……一个生物。
Video
ID                                       : 1
Format                                   : AVC
Format/Info                              : Advanced Video Codec
Format profile                           :
Format settings                          : CABAC / 4 Ref Frames
Format settings, CABAC                   : Yes
Format settings, Reference frames        : 4 frames
Codec ID                                 : V_MPEG4/ISO/AVC
Duration                                 : 1 h 29 min
Bit rate                                 : 11.5 Mb/s
Width                                    : 1 920 pixels
Height                                   : 720 pixels
Display aspect ratio                     : 2.667
Frame rate mode                          : Constant
Frame rate                               : 23.976 (24000/1001/189150) FPS
Color space                              : YUV
Chroma subsampling                       : 4:2:0
Bit depth                                : 8 bits
Scan type                                : Progressive
Bits/(Pixel*Frame)                       : 0.347
Stream size                              : 7.19 GiB (88%)
Writing library                          : x264 core 148 r2795M aaa9aa8
Encoding settings                        : cabac=1 / ref=4 / deblock=1:-2:-2 / analyse=0x3:0x113 / me=umh / subme=9 / psy=1 / psy_rd=1.00:0.15 / mixed_ref=1 / me_range=16 / chroma_me=1 / trellis=2 / 8x8dct=1 / cqm=0 / deadzone=21,11 / fast_pskip=1 / chroma_qp_offset=-3 / threads=24 / lookahead_threads=3 / sliced_threads=0 / nr=0 / decimate=1 / interlaced=0 / bluray_compat=0 / constrained_intra=0 / bframes=3 / b_pyramid=2 / b_adapt=1 / b_bias=0 / direct=3 / weightb=1 / open_gop=0 / weightp=2 / keyint=250 / keyint_min=25 / scenecut=40 / intra_refresh=0 / rc_lookahead=50 / rc=2pass / mbtree=1 / bitrate=11500 / ratetol=1.0 / qcomp=0.60 / qpmin=0 / qpmax=69 / qpstep=4 / cplxblur=20.0 / qblur=0.5 / vbv_maxrate=31250 / vbv_bufsize=31250 / nal_hrd=none / filler=0 / ip_ratio=1.40 / aq=1:1.00
Language                                 : English
Default                                  : Yes
Forced                                   : No

Audio
ID                                       : 2
Format                                   : DTS
Format/Info                              : Digital Theater Systems
Codec ID                                 : A_DTS
Duration                                 : 1 h 29 min
Bit rate mode                            : Constant
Bit rate                                 : 1 509 kb/s
Channel(s)                               : 6 channels
Channel layout                           : C L R Ls Rs LFE
Sampling rate                            : 48.0 kHz
Frame rate                               : 93.750 FPS (512 SPF)
Bit depth                                : 24 bits
Compression mode                         : Lossy
Stream size                              : 967 MiB (12%)
Title                                    : DTS 5.1
Language                                 : English
Default                                  : Yes
Forced                                   : No

Text
ID                                       : 3
Format                                   : UTF-8
Codec ID                                 : S_TEXT/UTF8
Codec ID/Info                            : UTF-8 Plain Text
Duration                                 : 1 h 24 min
Bit rate                                 : 23 b/s
Count of elements                        : 568
Stream size                              : 14.7 KiB (0%)
Title                                    : English-SRT
Language                                 : English
Default                                  : Yes
Forced                                   : No

Menu
00:00:00.000                             : en:Chapter 1
00:08:44.649                             : en:Chapter 2
00:15:59.333                             : en:Chapter 3
00:24:03.901                             : en:Chapter 4
00:32:05.382                             : en:Chapter 5
00:38:34.646                             : en:Chapter 6
00:47:43.027                             : en:Chapter 7
00:55:40.212                             : en:Chapter 8
01:03:44.988                             : en:Chapter 9
01:10:13.543                             : en:Chapter 10
01:17:23.681                             : en:Chapter 11
01:26:26.890                             : en:Chapter 12





                                                                                                                                                                                                        
                                                                                                                                                                                                                                                                                                                                                                                                                                                                                                                                                                                                                                                                                                                                                                                                                                                        
11c305298257bc7064678e39aab43e2e.zip (41.33 KB)

回复

使用道具 举报

百度云电影论坛 ( 辽ICP备17019482号-3 )

本网站所有资源来自网络,如无意中侵犯了您的权益,请发邮件至 [email protected],立即清除相关链接

GMT+8, 2021-1-24 05:01 , Processed in 0.096540 second(s), 22 queries .

Powered by Discuz! X3.2

© 2001-2013 Comsenz Inc.

快速回复 返回顶部 返回列表