百度云电影论坛

 找回密码
 立即注册

勇士迷踪 The.Legion.2020.1080p.BluRay.x264-JustWatch 4.38GB

[复制链接]

百度云电影 发表于 2021-1-9 20:19:19 | 显示全部楼层 |阅读模式
-->
帖子完整标题:勇士迷踪 The.Legion.2020.1080p.BluRay.x264-JustWatch 4.38GB





◎译  名 勇士迷踪/The Legion/军团的踪迹
◎片  名 Legionnaire's Trail
◎年  代 2020
◎产  地 美国
◎类  别 动作 / 历史 / 冒险
◎语  言 英语
◎上映日期 2020-05-08(美国)
◎IMDb评分  3.1/10 from 527 users
◎IMDb链接  
◎豆瓣评分 /10 from 0 users
◎豆瓣链接 
◎片  长 96分钟
◎导  演 何塞·马根 Jose Magan
◎编  剧 Alberto Vázquez Figueroa / 何塞·马根 Jose Magan
◎主  演 米基·洛克 Mickey Rourke
       白灵 Ling Bai
       弗拉基米尔库利奇 Vladimir Kulich
       乔昆姆·德·阿尔梅达 Joaquim de Almeida
       马克西姆·马特维耶夫 Maksim Matveev

◎标  签 白灵 | 跑 | 米基洛基 | [歐美]

◎简  介

  Nero's reign. The invasion of Parthia has been a fiasco. Two Roman legions have been brought to a stand still in the snowy mountains of Armenia, and the men are dying slowly in the cold. The rest of the Roman army is in Syria, only two weeks march away but the mountains swarm with Parthian patrols. Noreno, a half-Roman, is entrusted the mission of crossing the mountains to ask for help. However, he might not be the best option, he's an expert runner, but he despises Rome.
Video
ID                                       : 1
Format                                   : AVC
Format/Info                              : Advanced Video Codec
Format profile                           :
Format settings                          : CABAC / 5 Ref Frames
Format settings, CABAC                   : Yes
Format settings, Reference frames        : 5 frames
Codec ID                                 : V_MPEG4/ISO/AVC
Duration                                 : 1 h 35 min
Bit rate                                 : 4 803 kb/s
Width                                    : 1 920 pixels
Height                                   : 804 pixels
Display aspect ratio                     : 2.40:1
Frame rate mode                          : Constant
Frame rate                               : 23.976 (24000/1001/189150) FPS
Color space                              : YUV
Chroma subsampling                       : 4:2:0
Bit depth                                : 8 bits
Scan type                                : Progressive
Bits/(Pixel*Frame)                       : 0.130
Stream size                              : 3.21 GiB (73%)
Writing library                          : x264 core 161 r3027 4121277
Encoding settings                        : cabac=1 / ref=5 / deblock=1:-3:-3 / analyse=0x3:0x133 / me=umh / subme=9 / psy=1 / psy_rd=1.00:0.00 / mixed_ref=1 / me_range=16 / chroma_me=1 / trellis=2 / 8x8dct=1 / cqm=0 / deadzone=21,11 / fast_pskip=0 / chroma_qp_offset=-2 / threads=25 / lookahead_threads=2 / sliced_threads=0 / nr=0 / decimate=1 / interlaced=0 / bluray_compat=0 / constrained_intra=0 / bframes=3 / b_pyramid=2 / b_adapt=2 / b_bias=0 / direct=3 / weightb=1 / open_gop=0 / weightp=2 / keyint=250 / keyint_min=23 / scenecut=40 / intra_refresh=0 / rc_lookahead=60 / rc=crf / mbtree=1 / crf=17.0 / qcomp=0.60 / qpmin=0 / qpmax=69 / qpstep=4 / ip_ratio=1.40 / aq=1:1.00
Language                                 : English
Default                                  : Yes
Forced                                   : No

Audio
ID                                       : 2
Format                                   : DTS XLL
Format/Info                              : Digital Theater Systems
Commercial name                          : DTS-HD Master Audio
Codec ID                                 : A_DTS
Duration                                 : 1 h 35 min
Bit rate mode                            : Variable
Bit rate                                 : 1 732 kb/s
Channel(s)                               : 6 channels
Channel layout                           : C L R Ls Rs LFE
Sampling rate                            : 48.0 kHz
Frame rate                               : 93.750 FPS (512 SPF)
Bit depth                                : 16 bits
Compression mode                         : Lossless
Stream size                              : 1.16 GiB (26%)
Language                                 : English
Default                                  : Yes
Forced                                   : No

Text
ID                                       : 3
Format                                   : PGS
Muxing mode                              : zlib
Codec ID                                 : S_HDMV/PGS
Codec ID/Info                            : Picture based subtitle format used on BDs/HD-DVDs
Duration                                 : 1 h 29 min
Bit rate                                 : 15.7 kb/s
Count of elements                        : 1009
Stream size                              : 10.1 MiB (0%)
Language                                 : German
Default                                  : No
Forced                                   : No

Menu
00:00:00.000                             : en:Kapitel 01
00:04:11.084                             : en:Kapitel 02
00:11:20.430                             : en:Kapitel 03
00:21:18.694                             : en:Kapitel 04
00:28:52.105                             : en:Kapitel 05
00:37:21.448                             : en:Kapitel 06
00:43:15.384                             : en:Kapitel 07
00:46:50.099                             : en:Kapitel 08
00:54:44.990                             : en:Kapitel 09
01:05:41.229                             : en:Kapitel 10
01:17:22.471                             : en:Kapitel 11
01:30:39.100                             : en:Kapitel 12





                                                                                                                                                                                                        
                                                                                                                                                                                                                                                                                                                                                                                                                                                                                                                                                                                                                                                                                                                                                                                                                                                        
054145a1f6a25e19140c2200b7d21692.zip (44.47 KB)

回复

使用道具 举报

百度云电影论坛 ( 辽ICP备17019482号-3 )

本网站所有资源来自网络,如无意中侵犯了您的权益,请发邮件至 [email protected],立即清除相关链接

GMT+8, 2021-1-24 05:19 , Processed in 0.090383 second(s), 22 queries .

Powered by Discuz! X3.2

© 2001-2013 Comsenz Inc.

快速回复 返回顶部 返回列表