百度云电影论坛

 找回密码
 立即注册

速度与激战:死亡竞赛 In.the.Drift.2020.720p.BluRay.x264-FREEMAN 2.15GB

[复制链接]

-->
帖子完整标题:速度与激战:死亡竞赛 In.the.Drift.2020.720p.BluRay.x264-FREEMAN 2.15GB





◎译  名 速度与激战:死亡竞赛/In the Drift/飘移风云
◎片  名 Fast and Fierce: Death Race
◎年  代 2020
◎产  地 美国
◎类  别 动作 / 冒险
◎语  言 英语
◎上映日期 2020-05-18(美国)
◎IMDb评分  2.1/10 from 283 users
◎IMDb链接  
◎豆瓣评分 3.5/10 from 77 users
◎豆瓣链接 
◎片  长 85分钟
◎导  演 贾瑞德·科恩 Jared Cohn
◎主  演 DMX
       Michael Devorzon

◎标  签 2020 | 动作 | 犯罪 | 美国 | 赛车 | 冒险 | 飙车 | 车

◎简  介

  杰克·泰森正在从墨西哥到加利福尼亚的一场非法汽车比赛中抢夺现金奖,这时一名绝望的女人,逃离运行比赛的黑帮男友,跳进他的车里请求帮助。
Video
ID                                       : 1
Format                                   : AVC
Format/Info                              : Advanced Video Codec
Format profile                           :
Format settings                          : CABAC / 8 Ref Frames
Format settings, CABAC                   : Yes
Format settings, Reference frames        : 8 frames
Codec ID                                 : V_MPEG4/ISO/AVC
Duration                                 : 1 h 24 min
Bit rate                                 : 2 993 kb/s
Width                                    : 1 280 pixels
Height                                   : 534 pixels
Display aspect ratio                     : 2.40:1
Frame rate mode                          : Constant
Frame rate                               : 23.976 (24000/1001/189150) FPS
Color space                              : YUV
Chroma subsampling                       : 4:2:0
Bit depth                                : 8 bits
Scan type                                : Progressive
Bits/(Pixel*Frame)                       : 0.183
Stream size                              : 1.77 GiB (82%)
Writing library                          : x264 core 161 r3018 db0d417
Encoding settings                        : cabac=1 / ref=8 / deblock=1:-3:-3 / analyse=0x3:0x133 / me=umh / subme=9 / psy=1 / psy_rd=1.00:0.00 / mixed_ref=1 / me_range=16 / chroma_me=1 / trellis=2 / 8x8dct=1 / cqm=0 / deadzone=21,11 / fast_pskip=1 / chroma_qp_offset=-2 / threads=17 / lookahead_threads=1 / sliced_threads=0 / nr=0 / decimate=1 / interlaced=0 / bluray_compat=0 / constrained_intra=0 / bframes=3 / b_pyramid=2 / b_adapt=2 / b_bias=0 / direct=3 / weightb=1 / open_gop=0 / weightp=2 / keyint=250 / keyint_min=23 / scenecut=40 / intra_refresh=0 / rc_lookahead=60 / rc=crf / mbtree=1 / crf=17.0 / qcomp=0.60 / qpmin=0 / qpmax=69 / qpstep=4 / ip_ratio=1.40 / aq=3:0.80
Language                                 : English
Default                                  : Yes
Forced                                   : No
Color range                              : Limited
Matrix coefficients                      : BT.709

Audio
ID                                       : 2
Format                                   : AC-3
Format/Info                              : Audio Coding 3
Commercial name                          : Dolby Digital
Codec ID                                 : A_AC3
Duration                                 : 1 h 24 min
Bit rate mode                            : Constant
Bit rate                                 : 640 kb/s
Channel(s)                               : 6 channels
Channel layout                           : L R C LFE Ls Rs
Sampling rate                            : 48.0 kHz
Frame rate                               : 31.250 FPS (1536 SPF)
Compression mode                         : Lossy
Stream size                              : 387 MiB (18%)
Title                                    : AC3
Language                                 : English
Service kind                             : Complete Main
Default                                  : Yes
Forced                                   : No

Text #1
ID                                       : 3
Format                                   : UTF-8
Codec ID                                 : S_TEXT/UTF8
Codec ID/Info                            : UTF-8 Plain Text
Duration                                 : 48 min 48 s
Bit rate                                 : 0 b/s
Count of elements                        : 11
Stream size                              : 287 Bytes (0%)
Title                                    : Forced
Language                                 : English
Default                                  : Yes
Forced                                   : No

Text #2
ID                                       : 4
Format                                   : PGS
Muxing mode                              : zlib
Codec ID                                 : S_HDMV/PGS
Codec ID/Info                            : Picture based subtitle format used on BDs/HD-DVDs
Duration                                 : 48 min 48 s
Bit rate                                 : 158 b/s
Count of elements                        : 22
Stream size                              : 56.7 KiB (0%)
Language                                 : English
Default                                  : No
Forced                                   : No

Menu
00:00:00.000                             : en:00:00:00.000
00:11:32.066                             : en:00:11:32.066
00:23:30.326                             : en:00:23:30.326
00:34:36.366                             : en:00:34:36.366
00:46:28.327                             : en:00:46:28.327
00:53:19.363                             : en:00:53:19.363
01:03:58.126                             : en:01:03:58.126
01:16:35.633                             : en:01:16:35.633





                                                                                                                                                                                                        
                                                                                                                                                                                                                                                                                                                                                                                                                                                                                                                                                                                                                                                                                                                                                                                                                                                        
35e93d4f865ed366bf7231c8d8fe34f6.zip (22.16 KB)

回复

使用道具 举报

百度云电影论坛 ( 辽ICP备17019482号-3 )

本网站所有资源来自网络,如无意中侵犯了您的权益,请发邮件至 [email protected],立即清除相关链接

GMT+8, 2021-1-16 21:50 , Processed in 0.097618 second(s), 22 queries .

Powered by Discuz! X3.2

© 2001-2013 Comsenz Inc.

快速回复 返回顶部 返回列表