百度云电影论坛

 找回密码
 立即注册

鬼哭神嚎3 Amityville.3.1983.720p.BluRay.x264-FREEMAN 3.16GB

[复制链接]

百度云电影 发表于 2021-1-9 19:29:21 | 显示全部楼层 |阅读模式
-->
帖子完整标题:鬼哭神嚎3 Amityville.3.1983.720p.BluRay.x264-FREEMAN 3.16GB





◎译  名 鬼哭神嚎3
◎片  名 Amityville 3-D
◎年  代 1983
◎产  地 美国
◎类  别 惊悚 / 恐怖
◎语  言 英语
◎上映日期 1983-11-18
◎IMDb评分  4.1/10 from 5772 users
◎IMDb链接  
◎豆瓣评分 4.8/10 from 98 users
◎豆瓣链接 
◎片  长 105 分钟
◎导  演 理查德·弗莱彻 Richard Fleischer

◎标  签 恐怖 | 美国 | 惊悚 | 我看过的电影 | 我看过的恐怖电影 | Horror | 我看过的英语电影 | 恐怖电影

◎简  介

  约翰专为《启示杂志》揭露一些所谓闹鬼的故事,调查完艾米提别墅后,他决意搬进这座传闻中的鬼屋,他本来坚决不信世界上有鬼,但从此与这座有关联的人相继离奇惨死,包括他的女儿和搭档,约翰无奈之下被迫请精神博士到家驱鬼……
Video
ID                                       : 1
Format                                   : AVC
Format/Info                              : Advanced Video Codec
Format profile                           :
Format settings                          : CABAC / 8 Ref Frames
Format settings, CABAC                   : Yes
Format settings, Reference frames        : 8 frames
Codec ID                                 : V_MPEG4/ISO/AVC
Duration                                 : 1 h 33 min
Bit rate                                 : 4 313 kb/s
Width                                    : 1 280 pixels
Height                                   : 546 pixels
Display aspect ratio                     : 2.35:1
Frame rate mode                          : Constant
Frame rate                               : 23.976 (24000/1001/189150) FPS
Color space                              : YUV
Chroma subsampling                       : 4:2:0
Bit depth                                : 8 bits
Scan type                                : Progressive
Bits/(Pixel*Frame)                       : 0.257
Stream size                              : 2.81 GiB (89%)
Writing library                          : x264 core 161 r3018 db0d417
Encoding settings                        : cabac=1 / ref=8 / deblock=1:-3:-3 / analyse=0x3:0x133 / me=umh / subme=9 / psy=1 / psy_rd=1.00:0.00 / mixed_ref=1 / me_range=16 / chroma_me=1 / trellis=2 / 8x8dct=1 / cqm=0 / deadzone=21,11 / fast_pskip=0 / chroma_qp_offset=-2 / threads=17 / lookahead_threads=1 / sliced_threads=0 / nr=0 / decimate=1 / interlaced=0 / bluray_compat=0 / constrained_intra=0 / bframes=3 / b_pyramid=2 / b_adapt=2 / b_bias=0 / direct=3 / weightb=1 / open_gop=0 / weightp=2 / keyint=250 / keyint_min=23 / scenecut=40 / intra_refresh=0 / rc_lookahead=60 / rc=crf / mbtree=1 / crf=18.7 / qcomp=0.60 / qpmin=0 / qpmax=69 / qpstep=4 / ip_ratio=1.40 / aq=1:1.00
Language                                 : English
Default                                  : Yes
Forced                                   : No

Audio #1
ID                                       : 2
Format                                   : FLAC
Format/Info                              : Free Lossless Audio Codec
Codec ID                                 : A_FLAC
Duration                                 : 1 h 33 min
Bit rate mode                            : Variable
Bit rate                                 : 412 kb/s
Channel(s)                               : 2 channels
Channel layout                           : L R
Sampling rate                            : 48.0 kHz
Frame rate                               : 11.719 FPS (4096 SPF)
Bit depth                                : 16 bits
Compression mode                         : Lossless
Stream size                              : 275 MiB (9%)
Writing library                          : libFLAC 1.3.2 (UTC 2017-01-01)
Language                                 : English
Default                                  : Yes
Forced                                   : No

Audio #2
ID                                       : 3
Format                                   : AAC LC
Format/Info                              : Advanced Audio Codec Low Complexity
Codec ID                                 : A_AAC-2
Duration                                 : 1 h 33 min
Bit rate                                 : 105 kb/s
Channel(s)                               : 2 channels
Channel layout                           : L R
Sampling rate                            : 48.0 kHz
Frame rate                               : 46.875 FPS (1024 SPF)
Compression mode                         : Lossy
Delay relative to video                  : 9 ms
Stream size                              : 70.0 MiB (2%)
Title                                    : commentary
Language                                 : English
Default                                  : No
Forced                                   : No

Text #1
ID                                       : 4
Format                                   : PGS
Muxing mode                              : zlib
Codec ID                                 : S_HDMV/PGS
Codec ID/Info                            : Picture based subtitle format used on BDs/HD-DVDs
Duration                                 : 1 h 25 min
Bit rate                                 : 17.1 kb/s
Count of elements                        : 1691
Stream size                              : 10.4 MiB (0%)
Language                                 : English
Default                                  : No
Forced                                   : No

Text #2
ID                                       : 5
Format                                   : PGS
Muxing mode                              : zlib
Codec ID                                 : S_HDMV/PGS
Codec ID/Info                            : Picture based subtitle format used on BDs/HD-DVDs
Duration                                 : 1 h 25 min
Bit rate                                 : 19.1 kb/s
Count of elements                        : 1642
Stream size                              : 11.7 MiB (0%)
Language                                 : German
Default                                  : No
Forced                                   : No

Menu
00:00:00.000                             : :Kapitel 01
00:12:10.647                             : :Kapitel 02
00:15:55.538                             : :Kapitel 03
00:23:03.549                             : :Kapitel 04
00:29:13.168                             : :Kapitel 05
00:38:28.473                             : :Kapitel 06
00:50:31.987                             : :Kapitel 07
00:55:35.082                             : :Kapitel 08
01:03:09.786                             : :Kapitel 09
01:10:59.505                             : :Kapitel 10
01:18:48.349                             : :Kapitel 11
01:30:46.608                             : :Kapitel 12





                                                                                                                                                                                                        
                                                                                                                                                                                                                                                                                                                                                                                                                                                                                                                                                                                                                                                                                                                                                                                                                                                        
ac6e2a1c377b61940d9ae8231c00b189.zip (32.29 KB)

回复

使用道具 举报

百度云电影论坛 ( 辽ICP备17019482号-3 )

本网站所有资源来自网络,如无意中侵犯了您的权益,请发邮件至 [email protected],立即清除相关链接

GMT+8, 2021-1-28 20:05 , Processed in 0.093321 second(s), 22 queries .

Powered by Discuz! X3.2

© 2001-2013 Comsenz Inc.

快速回复 返回顶部 返回列表