百度云电影论坛

 找回密码
 立即注册

马利纳/玛丽娜 Malina.1991.720p.BluRay.x264-BiPOLAR 4.23GB

[复制链接]

-->
帖子完整标题:马利纳/玛丽娜 Malina.1991.720p.BluRay.x264-BiPOLAR 4.23GB





◎译  名 马利纳/玛丽娜
◎片  名 Malina
◎年  代 1991
◎产  地 德国,奥地利
◎类  别 剧情 / 爱情 / 悬疑 / 奇幻
◎语  言 法语,德语
◎上映日期 1991-01-17
◎IMDb评分  6.4/10 from 786 users
◎IMDb链接  
◎豆瓣评分 7.7/10 from 529 users
◎豆瓣链接 
◎片  长 125 分钟
◎导  演 沃纳·施罗德 Werner Schroeter
◎编  剧 艾尔芙蕾德·耶利内克 Elfriede Jelinek / Patricia Moraz / 英格博格·巴赫曼 Ingeborg Bachmann
◎主  演 伊莎贝尔·于佩尔 Isabelle Huppert
       马修·加里瑞 Mathieu Carrière
       詹·托盖 Can Togay
       伊索尔德·巴尔特 Isolde Barth
       彼得·科恩 Peter Kern
       Wiebke Frost
       汉诺·波西尔 Hanno P?schl
       利布加特·施瓦茨 Libgart Schwarz
       丽萨·克鲁泽 Lisa Kreuzer
       Nicolin Kunz
       Alan Goodson
       Brigitte Antonius
       洛丽塔·夏马 Lolita Chammah

◎标  签 德国 | IsabelleHuppert | 伊莎贝尔·于佩尔 | 女性 | 1991 | 德国电影 | 奥地利 | 女性电影

◎简  介

  影片讲述一个奥地利女作家陷入创作困境和与父亲、情人及男友三者复杂的关系之中,最后失去自我并神秘消失的故事。无名女作家与男友马利纳居住在维也纳的一所公寓内,他们的关系表面上看像一对夫妻但实际上却是柏拉图式的精神恋爱。直到女作家在街上偶遇伊万,一个更年轻的匈牙利人,她无法自拔的爱上了他并认定他是能拯救自己的人,她把所有在马利纳处无法得到的需求全部放在了伊万身上,但这却使他逐渐退缩而选择了别人,最终痛苦的女作家失去了本性。
  
  幕后
  
  《马利纳》改编自英博柯·巴赫曼倍受争论的同名自传体小说,由诺贝尔文学奖得主奥地利女作家艾尔芙蕾德·耶利内克主笔,并找来新德国电影异将韦纳·施罗特执导和法国女星伊莎贝·于佩尔担当主演,强强联手弄出来的东西自然非比寻常。
  
  片中冷静却缺乏活力的马利纳与冲动而敏感的女作家不仅象征着社会中男女两个群体,同时也象征着女人双重个性的两面。当以男性为主的社会(或个性)占据强势时,它对女性(或个性)的同化和驯服就会逐渐使女人本身丧失激情和生存的意义,成为另一方的附属,以至女作家只有当面对镜子时才能知道自己的存在。而最后她的消失不仅象征着个体的胜利,也象征着强势个性对弱势个性的完全占有并最终“谋杀”了女人的本性,导致女性本体异化的结果。
  
  于佩尔的表演在此片中达到了她艺术生涯的一个顶峰。就像阿佳尼在《着魔》里令人窒息的疯狂演出一样,她将一个无法满足自己而又受限于现实世界的女人内心的恐慌展露无余。
  
  该片荣获1991年德国电影最佳长片奖。
  
  荣誉
  
  1991年 German Film Awards(Film Award in Gold) Outstanding Feature Film
  
  1991年 German Film Awards(Film Award in Gold) Outstanding Individual Achievement: Editing Juliane Lorenz
  
  1991年 German Film Awards Outstanding Individual Achievement: Direction 沃纳·施罗德

◎获奖情况

  第44届戛纳电影节 ?(1991)
  主竞赛单元金棕榈奖(提名) 沃纳·施罗德
Video
ID                                       : 1
Format                                   : AVC
Format/Info                              : Advanced Video Codec
Format profile                           :
Format settings                          : CABAC / 9 Ref Frames
Format settings, CABAC                   : Yes
Format settings, Reference frames        : 9 frames
Codec ID                                 : V_MPEG4/ISO/AVC
Duration                                 : 2 h 5 min
Bit rate                                 : 4 465 kb/s
Width                                    : 1 280 pixels
Height                                   : 720 pixels
Display aspect ratio                     : 16:9
Frame rate mode                          : Constant
Frame rate                               : 23.976 (24000/1001/189150) FPS
Color space                              : YUV
Chroma subsampling                       : 4:2:0
Bit depth                                : 8 bits
Scan type                                : Progressive
Bits/(Pixel*Frame)                       : 0.202
Stream size                              : 3.93 GiB (93%)
Writing library                          : x264 core 161 r3027 4121277
Encoding settings                        : cabac=1 / ref=9 / deblock=1:-3:-3 / analyse=0x3:0x133 / me=umh / subme=10 / psy=1 / psy_rd=1.00:0.15 / mixed_ref=1 / me_range=24 / chroma_me=1 / trellis=2 / 8x8dct=1 / cqm=0 / deadzone=21,11 / fast_pskip=1 / chroma_qp_offset=-3 / threads=18 / lookahead_threads=3 / sliced_threads=0 / nr=0 / decimate=1 / interlaced=0 / bluray_compat=0 / constrained_intra=0 / bframes=8 / b_pyramid=2 / b_adapt=2 / b_bias=0 / direct=3 / weightb=1 / open_gop=0 / weightp=2 / keyint=250 / keyint_min=23 / scenecut=40 / intra_refresh=0 / rc_lookahead=60 / rc=crf / mbtree=1 / crf=19.0 / qcomp=0.60 / qpmin=0 / qpmax=69 / qpstep=4 / ip_ratio=1.40 / aq=3:0.50
Language                                 : English
Default                                  : Yes
Forced                                   : No
Color range                              : Limited
Matrix coefficients                      : BT.709

Audio
ID                                       : 2
Format                                   : FLAC
Format/Info                              : Free Lossless Audio Codec
Codec ID                                 : A_FLAC
Duration                                 : 2 h 5 min
Bit rate mode                            : Variable
Bit rate                                 : 286 kb/s
Channel(s)                               : 1 channel
Channel layout                           : C
Sampling rate                            : 48.0 kHz
Frame rate                               : 11.719 FPS (4096 SPF)
Bit depth                                : 16 bits
Compression mode                         : Lossless
Stream size                              : 257 MiB (6%)
Writing library                          : libFLAC 1.2.1 (UTC 2007-09-17)
Language                                 : French
Default                                  : Yes
Forced                                   : No

Text #1
ID                                       : 3
Format                                   : UTF-8
Codec ID                                 : S_TEXT/UTF8
Codec ID/Info                            : UTF-8 Plain Text
Duration                                 : 2 h 0 min
Bit rate                                 : 37 b/s
Count of elements                        : 1012
Stream size                              : 33.4 KiB (0%)
Title                                    : English
Language                                 : English
Default                                  : Yes
Forced                                   : Yes

Text #2
ID                                       : 4
Format                                   : PGS
Muxing mode                              : zlib
Codec ID                                 : S_HDMV/PGS
Codec ID/Info                            : Picture based subtitle format used on BDs/HD-DVDs
Duration                                 : 2 h 0 min
Bit rate                                 : 29.5 kb/s
Count of elements                        : 3560
Stream size                              : 25.5 MiB (1%)
Title                                    : English
Language                                 : English
Default                                  : No
Forced                                   : No

Text #3
ID                                       : 5
Format                                   : UTF-8
Codec ID                                 : S_TEXT/UTF8
Codec ID/Info                            : UTF-8 Plain Text
Duration                                 : 1 h 42 min
Bit rate                                 : 2 b/s
Count of elements                        : 63
Stream size                              : 2.13 KiB (0%)
Title                                    : French forced
Language                                 : French
Default                                  : No
Forced                                   : No

Text #4
ID                                       : 6
Format                                   : PGS
Muxing mode                              : zlib
Codec ID                                 : S_HDMV/PGS
Codec ID/Info                            : Picture based subtitle format used on BDs/HD-DVDs
Duration                                 : 1 h 42 min
Bit rate                                 : 2 629 b/s
Count of elements                        : 303
Stream size                              : 1.94 MiB (0%)
Title                                    : French forced
Language                                 : French
Default                                  : No
Forced                                   : No

Text #5
ID                                       : 7
Format                                   : UTF-8
Codec ID                                 : S_TEXT/UTF8
Codec ID/Info                            : UTF-8 Plain Text
Duration                                 : 2 h 5 min
Bit rate                                 : 43 b/s
Count of elements                        : 1078
Stream size                              : 40.1 KiB (0%)
Title                                    : German
Language                                 : German
Default                                  : No
Forced                                   : No

Text #6
ID                                       : 8
Format                                   : PGS
Muxing mode                              : zlib
Codec ID                                 : S_HDMV/PGS
Codec ID/Info                            : Picture based subtitle format used on BDs/HD-DVDs
Duration                                 : 2 h 5 min
Bit rate                                 : 31.6 kb/s
Count of elements                        : 3729
Stream size                              : 28.3 MiB (1%)
Title                                    : German
Language                                 : German
Default                                  : No
Forced                                   : No

Menu
00:00:00.000                             : en:00:00:00.000
00:07:56.059                             : en:00:07:56.059
00:17:24.418                             : en:00:17:24.418
00:23:56.143                             : en:00:23:56.143
00:32:49.426                             : en:00:32:49.426
00:43:08.461                             : en:00:43:08.461
00:48:14.683                             : en:00:48:14.683
00:54:39.485                             : en:00:54:39.485
01:03:46.364                             : en:01:03:46.364
01:11:43.549                             : en:01:11:43.549
01:24:06.875                             : en:01:24:06.875
01:32:31.045                             : en:01:32:31.045
01:41:02.139                             : en:01:41:02.139
01:47:25.689                             : en:01:47:25.689
01:53:11.994                             : en:01:53:11.994
02:01:49.761                             : en:02:01:49.761





                                                                                                                                                                                                        
                                                                                                                                                                                                                                                                                                                                                                                                                                                                                                                                                                                                                                                                                                                                                                                                                                                        
7733b7e1988c87160358ab2de027ffa6.zip (43.02 KB)

回复

使用道具 举报

百度云电影论坛 ( 辽ICP备17019482号-3 )

本网站所有资源来自网络,如无意中侵犯了您的权益,请发邮件至 [email protected],立即清除相关链接

GMT+8, 2021-1-16 22:59 , Processed in 0.096746 second(s), 22 queries .

Powered by Discuz! X3.2

© 2001-2013 Comsenz Inc.

快速回复 返回顶部 返回列表