百度云电影论坛

 找回密码
 立即注册

雪莉 Shirley.2020.1080p.BluRay.x264-USURY 9.71GB

[复制链接]

百度云电影 发表于 2021-1-9 19:28:44 | 显示全部楼层 |阅读模式
-->
帖子完整标题:雪莉 Shirley.2020.1080p.BluRay.x264-USURY 9.71GB





◎译  名 雪莉
◎片  名 Shirley
◎年  代 2020
◎产  地 美国
◎类  别 剧情 / 惊悚 / 传记
◎语  言 英语
◎上映日期 2020-01-25(圣丹斯电影节) / 2020-06-05(美国)
◎IMDb评分  6.2/10 from 6869 users
◎IMDb链接  
◎豆瓣评分 6.2/10 from 1612 users
◎豆瓣链接 
◎片  长 107分钟
◎导  演 约瑟芬·戴克 Josephine Decker
◎编  剧 萨拉·歌宾斯 Sarah Gubbins / 苏珊·斯卡夫·梅雷尔 Susan Scarf Merrell
◎主  演 伊丽莎白·莫斯 Elisabeth Moss
       罗根·勒曼 Logan Lerman
       迈克尔·斯图巴 Michael Stuhlbarg
       奥黛莎·杨 Odessa Young
       史蒂夫·维诺维奇 Steve Vinovich
       瑞恩·史帕恩 Ryan Spahn
       阿德莱林德·霍伦 Adelind Horan
       罗丝玛丽·霍华德 Rosemary Howard
       维多利亚·佩德雷蒂 Victoria Pedretti

◎标  签 惊悚 | 美国 | 剧情 | 2020 | 伊丽莎白·莫斯 | 美国电影 | 改编 | 电影

◎简  介

  影片改编自苏珊·斯卡夫·梅瑞尔小说,背景设置在上世纪60年代,讲述了一对年轻夫妇(勒曼、杨饰)搬去与美国哥特惊悚小说家雪莉·杰克逊(莫斯饰)及其丈夫(斯图巴饰)同住,他们因此卷入一场心理惊悚事件,而这也为杰克逊的下一部小说提供了素材。

◎获奖情况

  第70届柏林国际电影节 ?(2020)
  遇见单元最佳影片(提名) 约瑟芬·戴克
  泰迪熊奖(提名) 约瑟芬·戴克
Video
ID                                       : 1
Format                                   : AVC
Format/Info                              : Advanced Video Codec
Format profile                           :
Format settings                          : CABAC / 4 Ref Frames
Format settings, CABAC                   : Yes
Format settings, Reference frames        : 4 frames
Codec ID                                 : V_MPEG4/ISO/AVC
Duration                                 : 1 h 47 min
Bit rate                                 : 10.9 Mb/s
Width                                    : 1 920 pixels
Height                                   : 1 038 pixels
Display aspect ratio                     : 1.85:1
Frame rate mode                          : Constant
Frame rate                               : 23.976 (24000/1001/189150) FPS
Color space                              : YUV
Chroma subsampling                       : 4:2:0
Bit depth                                : 8 bits
Scan type                                : Progressive
Bits/(Pixel*Frame)                       : 0.229
Stream size                              : 8.18 GiB (84%)
Writing library                          : x264 core 161 r3027 4121277
Encoding settings                        : cabac=1 / ref=4 / deblock=1:-3:-3 / analyse=0x3:0x133 / me=umh / subme=10 / psy=1 / psy_rd=1.00:0.15 / mixed_ref=1 / me_range=24 / chroma_me=1 / trellis=2 / 8x8dct=1 / cqm=0 / deadzone=21,11 / fast_pskip=1 / chroma_qp_offset=-3 / threads=18 / lookahead_threads=3 / sliced_threads=0 / nr=0 / decimate=1 / interlaced=0 / bluray_compat=0 / constrained_intra=0 / bframes=8 / b_pyramid=2 / b_adapt=2 / b_bias=0 / direct=3 / weightb=1 / open_gop=0 / weightp=2 / keyint=250 / keyint_min=23 / scenecut=40 / intra_refresh=0 / rc_lookahead=60 / rc=crf / mbtree=1 / crf=17.0 / qcomp=0.60 / qpmin=0 / qpmax=69 / qpstep=4 / ip_ratio=1.40 / aq=3:0.60
Language                                 : English
Default                                  : Yes
Forced                                   : No
Color range                              : Limited
Matrix coefficients                      : BT.709

Audio
ID                                       : 2
Format                                   : DTS XLL
Format/Info                              : Digital Theater Systems
Commercial name                          : DTS-HD Master Audio
Codec ID                                 : A_DTS
Duration                                 : 1 h 47 min
Bit rate mode                            : Variable
Bit rate                                 : 2 028 kb/s
Channel(s)                               : 6 channels
Channel layout                           : C L R Ls Rs LFE
Sampling rate                            : 48.0 kHz
Frame rate                               : 93.750 FPS (512 SPF)
Bit depth                                : 16 bits
Compression mode                         : Lossless
Stream size                              : 1.52 GiB (16%)
Language                                 : English
Default                                  : Yes
Forced                                   : No

Text #1
ID                                       : 3
Format                                   : UTF-8
Codec ID                                 : S_TEXT/UTF8
Codec ID/Info                            : UTF-8 Plain Text
Duration                                 : 1 h 41 min
Bit rate                                 : 40 b/s
Count of elements                        : 1085
Stream size                              : 30.0 KiB (0%)
Title                                    : English
Language                                 : English
Default                                  : No
Forced                                   : No

Text #2
ID                                       : 4
Format                                   : UTF-8
Codec ID                                 : S_TEXT/UTF8
Codec ID/Info                            : UTF-8 Plain Text
Duration                                 : 1 h 44 min
Bit rate                                 : 43 b/s
Count of elements                        : 1222
Stream size                              : 33.4 KiB (0%)
Title                                    : English SDH
Language                                 : English
Default                                  : No
Forced                                   : No

Text #3
ID                                       : 5
Format                                   : PGS
Muxing mode                              : zlib
Codec ID                                 : S_HDMV/PGS
Codec ID/Info                            : Picture based subtitle format used on BDs/HD-DVDs
Duration                                 : 1 h 44 min
Bit rate                                 : 11.2 kb/s
Count of elements                        : 1586
Stream size                              : 8.34 MiB (0%)
Title                                    : English SDH
Language                                 : English
Default                                  : No
Forced                                   : No

Menu
00:00:00.000                             : en:00:00:00.000
00:11:13.631                             : en:00:11:13.631
00:21:12.897                             : en:00:21:12.897
00:30:32.748                             : en:00:30:32.748
00:42:22.957                             : en:00:42:22.957
00:54:48.744                             : en:00:54:48.744
01:04:44.380                             : en:01:04:44.380
01:10:46.742                             : en:01:10:46.742
01:19:53.622                             : en:01:19:53.622
01:30:57.494                             : en:01:30:57.494
01:36:43.798                             : en:01:36:43.798
01:41:24.120                             : en:01:41:24.120





                                                                                                                                                                                                        
                                                                                                                                                                                                                                                                                                                                                                                                                                                                                                                                                                                                                                                                                                                                                                                                                                                        
8e91437136d067f8f1c82298e910fe60.zip (49.21 KB)

回复

使用道具 举报

百度云电影论坛 ( 辽ICP备17019482号-3 )

本网站所有资源来自网络,如无意中侵犯了您的权益,请发邮件至 [email protected],立即清除相关链接

GMT+8, 2021-1-20 05:16 , Processed in 0.094547 second(s), 22 queries .

Powered by Discuz! X3.2

© 2001-2013 Comsenz Inc.

快速回复 返回顶部 返回列表