百度云电影论坛

 找回密码
 立即注册

逃跑/疑·妈 Run.2020.1080p.BluRay.x264-SURCODE 7.39GB

[复制链接]

百度云电影 发表于 2021-1-7 10:36:15 | 显示全部楼层 |阅读模式
-->
帖子完整标题:逃跑/疑·妈 Run.2020.1080p.BluRay.x264-SURCODE 7.39GB





◎译  名 逃跑/疑·妈(港)/跑/逃(台)
◎片  名 Run
◎年  代 2020
◎产  地 美国
◎类  别 悬疑 / 惊悚 / 恐怖
◎语  言 英语
◎上映日期 2020-11-20(美国网络)
◎IMDb评分  6.7/10 from 19748 users
◎IMDb链接  
◎豆瓣评分 6.7/10 from 7182 users
◎豆瓣链接 
◎片  长 90分钟
◎导  演 阿尼什·查甘蒂 Aneesh Chaganty
◎编  剧 阿尼什·查甘蒂 Aneesh Chaganty / 赛弗·奥哈尼安 Sev Ohanian
◎主  演 莎拉·保罗森 Sarah Paulson
       基拉·艾伦 Kiera Allen
       帕特·希利 Pat Healy
       埃里克·阿塔瓦尔 Erik Athavale
       布拉德利·索茨基 Bradley Sawatzky
       奥娜莉·艾姆斯 Onalee Ames
       德里克·詹姆斯·特拉普 Derek James Trapp

◎标  签 惊悚 | 悬疑 | 美国 | 犯罪 | 恐怖 | 2020 | 莎拉·保罗森 | 剧情

◎简  介

  《网络谜踪》导演阿尼什·查甘蒂自编自导,讲述“香蕉姐”莎拉·保罗森饰演的母亲独自抚养着女儿(基拉·艾伦 饰),当女儿得知了母亲罪恶的秘密,她们的生活开始瓦解。
Video
ID                                       : 1
Format                                   : AVC
Format/Info                              : Advanced Video Codec
Format profile                           :
Format settings                          : CABAC / 5 Ref Frames
Format settings, CABAC                   : Yes
Format settings, Reference frames        : 5 frames
Codec ID                                 : V_MPEG4/ISO/AVC
Duration                                 : 1 h 29 min
Bit rate                                 : 10.0 Mb/s
Width                                    : 1 920 pixels
Height                                   : 804 pixels
Display aspect ratio                     : 2.40:1
Frame rate mode                          : Constant
Frame rate                               : 24.000 FPS
Color space                              : YUV
Chroma subsampling                       : 4:2:0
Bit depth                                : 8 bits
Scan type                                : Progressive
Bits/(Pixel*Frame)                       : 0.271
Stream size                              : 6.29 GiB (85%)
Writing library                          : x264 core 161 r3027 4121277
Encoding settings                        : cabac=1 / ref=5 / deblock=1:-3:-3 / analyse=0x3:0x133 / me=umh / subme=9 / psy=1 / psy_rd=1.00:0.00 / mixed_ref=1 / me_range=16 / chroma_me=1 / trellis=2 / 8x8dct=1 / cqm=0 / deadzone=21,11 / fast_pskip=0 / chroma_qp_offset=-2 / threads=25 / lookahead_threads=2 / sliced_threads=0 / nr=0 / decimate=1 / interlaced=0 / bluray_compat=0 / constrained_intra=0 / bframes=3 / b_pyramid=2 / b_adapt=2 / b_bias=0 / direct=3 / weightb=1 / open_gop=0 / weightp=2 / keyint=250 / keyint_min=24 / scenecut=40 / intra_refresh=0 / rc_lookahead=60 / rc=crf / mbtree=1 / crf=14.0 / qcomp=0.60 / qpmin=0 / qpmax=69 / qpstep=4 / ip_ratio=1.40 / aq=1:1.00
Language                                 : English
Default                                  : Yes
Forced                                   : No

Audio
ID                                       : 2
Format                                   : DTS XLL
Format/Info                              : Digital Theater Systems
Commercial name                          : DTS-HD Master Audio
Codec ID                                 : A_DTS
Duration                                 : 1 h 29 min
Bit rate mode                            : Variable
Bit rate                                 : 1 744 kb/s
Channel(s)                               : 6 channels
Channel layout                           : C L R Ls Rs LFE
Sampling rate                            : 48.0 kHz
Frame rate                               : 93.750 FPS (512 SPF)
Bit depth                                : 16 bits
Compression mode                         : Lossless
Stream size                              : 1.09 GiB (15%)
Language                                 : English
Default                                  : Yes
Forced                                   : No

Text
ID                                       : 3
Format                                   : PGS
Muxing mode                              : zlib
Codec ID                                 : S_HDMV/PGS
Codec ID/Info                            : Picture based subtitle format used on BDs/HD-DVDs
Duration                                 : 1 h 28 min
Bit rate                                 : 29.1 kb/s
Count of elements                        : 968
Stream size                              : 18.5 MiB (0%)
Language                                 : German
Default                                  : No
Forced                                   : No

Menu
00:00:00.000                             : en:Kapitel 01
00:10:45.250                             : en:Kapitel 02
00:22:37.917                             : en:Kapitel 03
00:35:55.125                             : en:Kapitel 04
00:45:02.750                             : en:Kapitel 05
00:56:08.292                             : en:Kapitel 06
01:08:36.042                             : en:Kapitel 07
01:18:10.667                             : en:Kapitel 08





                                                                                                                                                                                                        
                                                                                                                                                                                                                                                                                                                                                                                                                                                                                                                                                                                                                                                                                                                                                                                                                                                        
d2966eacfa1f49f4546fb9a3f2b6c064.zip (37.65 KB)

回复

使用道具 举报

百度云电影论坛 ( 辽ICP备17019482号-3 )

本网站所有资源来自网络,如无意中侵犯了您的权益,请发邮件至 [email protected],立即清除相关链接

GMT+8, 2021-1-20 04:46 , Processed in 0.103959 second(s), 22 queries .

Powered by Discuz! X3.2

© 2001-2013 Comsenz Inc.

快速回复 返回顶部 返回列表