百度云电影论坛

 找回密码
 立即注册

超时空漫游 It.Couldnt.Happen.Here.1987.720p.BluRay.x264-GAZER 6.06GB

[复制链接]

百度云电影 发表于 2021-1-5 10:01:48 | 显示全部楼层 |阅读模式
-->
帖子完整标题:超时空漫游 It.Couldnt.Happen.Here.1987.720p.BluRay.x264-GAZER 6.06GB





◎译  名 超时空漫游
◎片  名 It Couldn't Happen Here
◎年  代 1987
◎产  地 英国
◎类  别 剧情 / 歌舞 / 冒险
◎语  言 英语
◎上映日期 1988-09-15
◎IMDb评分  6.7/10 from 532 users
◎IMDb链接  
◎豆瓣评分 8.0/10 from 37 users
◎豆瓣链接 
◎片  长 86 分钟
◎主  演 克里斯·洛 Chris Lowe
       尼尔·坦南特 Neil Tennant
       Natalie Roles
       盖瑞·亨特 Gareth Hunt
       Carmen du Sautoy
       Dominique Barnes
       乔斯·雅克兰德 Joss Ackland
       芭芭拉·温德索 Barbara Windsor
       尼尔·迪克森 Neil Dickson

◎标  签 英国 | PetShopBoys | 音乐 | 1987 | PSB | 英国电影 | UK | Music

◎简  介

  这套 Pet Shop Boys 的处女电影内容以 Neil Tennant 和 Chris Lowe 二人的童年回忆开始, 交织成一段惊险及诡异的旅程, 如古怪神父, 春宫图片, 荒淫歌剧, 还有鬼魅的飞机师, 及至二人长大后仍与一切现实及梦幻羁缠不清. (香港正版影碟官方介绍)
Video
ID                                       : 1
Format                                   : AVC
Format/Info                              : Advanced Video Codec
Format profile                           :
Format settings                          : CABAC / 9 Ref Frames
Format settings, CABAC                   : Yes
Format settings, Reference frames        : 9 frames
Codec ID                                 : V_MPEG4/ISO/AVC
Duration                                 : 1 h 25 min
Bit rate                                 : 9 297 kb/s
Width                                    : 1 280 pixels
Height                                   : 692 pixels
Display aspect ratio                     : 1.85:1
Frame rate mode                          : Constant
Frame rate                               : 24.000 FPS
Color space                              : YUV
Chroma subsampling                       : 4:2:0
Bit depth                                : 8 bits
Scan type                                : Progressive
Bits/(Pixel*Frame)                       : 0.437
Stream size                              : 5.57 GiB (92%)
Writing library                          : x264 core 161 r3027 4121277
Encoding settings                        : cabac=1 / ref=9 / deblock=1:-3:-3 / analyse=0x3:0x133 / me=umh / subme=10 / psy=1 / psy_rd=1.50:0.15 / mixed_ref=1 / me_range=24 / chroma_me=1 / trellis=2 / 8x8dct=1 / cqm=0 / deadzone=21,11 / fast_pskip=0 / chroma_qp_offset=-3 / threads=22 / lookahead_threads=3 / sliced_threads=0 / nr=0 / decimate=0 / interlaced=0 / bluray_compat=0 / constrained_intra=0 / bframes=8 / b_pyramid=2 / b_adapt=2 / b_bias=0 / direct=3 / weightb=1 / open_gop=0 / weightp=2 / keyint=250 / keyint_min=24 / scenecut=40 / intra_refresh=0 / rc_lookahead=60 / rc=crf / mbtree=1 / crf=19.5 / qcomp=0.60 / qpmin=0 / qpmax=69 / qpstep=4 / ip_ratio=1.40 / aq=3:0.50
Default                                  : Yes
Forced                                   : No
Color range                              : Limited
Matrix coefficients                      : BT.709

Audio #1
ID                                       : 2
Format                                   : FLAC
Format/Info                              : Free Lossless Audio Codec
Codec ID                                 : A_FLAC
Duration                                 : 1 h 25 min
Bit rate mode                            : Variable
Bit rate                                 : 661 kb/s
Channel(s)                               : 2 channels
Channel layout                           : L R
Sampling rate                            : 48.0 kHz
Frame rate                               : 11.719 FPS (4096 SPF)
Bit depth                                : 16 bits
Compression mode                         : Lossless
Stream size                              : 406 MiB (7%)
Writing library                          : libFLAC 1.3.2 (UTC 2017-01-01)
Language                                 : English
Default                                  : Yes
Forced                                   : No

Audio #2
ID                                       : 3
Format                                   : AAC LC
Format/Info                              : Advanced Audio Codec Low Complexity
Codec ID                                 : A_AAC-2
Duration                                 : 1 h 25 min
Bit rate                                 : 137 kb/s
Channel(s)                               : 2 channels
Channel layout                           : L R
Sampling rate                            : 48.0 kHz
Frame rate                               : 46.875 FPS (1024 SPF)
Compression mode                         : Lossy
Delay relative to video                  : 20 ms
Stream size                              : 84.1 MiB (1%)
Title                                    : Commentary
Language                                 : English
Default                                  : No
Forced                                   : No

Text
ID                                       : 4
Format                                   : PGS
Muxing mode                              : zlib
Codec ID                                 : S_HDMV/PGS
Codec ID/Info                            : Picture based subtitle format used on BDs/HD-DVDs
Duration                                 : 1 h 25 min
Bit rate                                 : 37.0 kb/s
Count of elements                        : 2408
Stream size                              : 22.7 MiB (0%)
Title                                    : SDH
Language                                 : English
Default                                  : No
Forced                                   : No

Menu
00:00:00.000                             : en:Chapter 01
00:10:02.167                             : en:Chapter 02
00:17:38.917                             : en:Chapter 03
00:24:11.917                             : en:Chapter 04
00:30:03.917                             : en:Chapter 05
00:36:41.833                             : en:Chapter 06
00:46:03.958                             : en:Chapter 07
00:53:15.833                             : en:Chapter 08
00:58:56.125                             : en:Chapter 09
01:04:34.083                             : en:Chapter 10
01:13:12.000                             : en:Chapter 11
01:19:27.667                             : en:Chapter 12
01:24:06.708                             : en:Chapter 13





                                                                                                                                                                                                        
                                                                                                                                                                                                                                                                                                                                                                                                                                                                                                                                                                                                                                                                                                                                                                                                                                                        
ad9cfc62ff9840128e239b061d1a3fd1.zip (31.01 KB)

回复

使用道具 举报

百度云电影论坛 ( 辽ICP备17019482号-3 )

本网站所有资源来自网络,如无意中侵犯了您的权益,请发邮件至 [email protected],立即清除相关链接

GMT+8, 2021-1-28 18:59 , Processed in 0.100165 second(s), 22 queries .

Powered by Discuz! X3.2

© 2001-2013 Comsenz Inc.

快速回复 返回顶部 返回列表