百度云电影论坛

 找回密码
 立即注册

坏男孩 The.Slasher.1953.720p.BluRay.x264-ORBS 5.16GB

[复制链接]

百度云电影 发表于 2021-1-4 09:48:00 | 显示全部楼层 |阅读模式
-->
帖子完整标题:坏男孩 The.Slasher.1953.720p.BluRay.x264-ORBS 5.16GB





◎译  名 坏男孩/The Slasher
◎片  名 Cosh Boy
◎年  代 1953
◎产  地 英国
◎类  别 剧情 / 犯罪
◎语  言 英语
◎上映日期 1953-05-29
◎IMDb评分  6/10 from 311 users
◎IMDb链接  
◎豆瓣评分 /10 from 0 users
◎豆瓣链接 
◎片  长 75 分钟
◎导  演 刘易斯·吉尔伯特 Lewis Gilbert
◎编  剧 刘易斯·吉尔伯特 Lewis Gilbert / 弗农·哈里斯 Vernon Harris
◎主  演 Arthur Howard
       赫米奥妮?金戈尔德 Hermione Gingold
       詹姆斯·肯尼 James Kenney
       Michael McKeag
       劳伦斯·奈史密斯 Laurence Naismith
       安东尼·奥利弗 Anthony Oliver
       弗雷德里克·派珀 Frederick Piper
       Nosher Powell
       卡梅伦·霍尔 Cameron Hall
       Edward Evans
       琼·柯琳斯 Joan Collins
       瓦尔特·胡德 Walter Hudd
       希德·詹姆斯 Sid James
       赫敏·巴德利 Hermione Baddeley
       罗伯特·艾尔斯 Robert Ayres
       Johnny Briggs
       斯坦利·埃斯卡内 Stanley Escane
       Betty Ann Davies
       Toke Townley

◎标  签 英國 | 50 | 英国电影 | 英国 | 犯罪 | 剧情 | UK | SocialProblem

◎简  介

  A gang of teenagers are mugging women on the streets of London. When they are caught and forced to join a youth club, they use it as a base for their growing operation.
Video
ID                                       : 1
Format                                   : AVC
Format/Info                              : Advanced Video Codec
Format profile                           :
Format settings                          : CABAC / 11 Ref Frames
Format settings, CABAC                   : Yes
Format settings, Reference frames        : 11 frames
Codec ID                                 : V_MPEG4/ISO/AVC
Duration                                 : 1 h 15 min
Bit rate                                 : 9 122 kb/s
Width                                    : 986 pixels
Height                                   : 720 pixels
Display aspect ratio                     : 4:3
Frame rate mode                          : Constant
Frame rate                               : 24.000 FPS
Color space                              : YUV
Chroma subsampling                       : 4:2:0
Bit depth                                : 8 bits
Scan type                                : Progressive
Bits/(Pixel*Frame)                       : 0.535
Stream size                              : 4.80 GiB (93%)
Writing library                          : x264 core 161 r3027 4121277
Encoding settings                        : cabac=1 / ref=11 / deblock=1:-3:-3 / analyse=0x3:0x133 / me=umh / subme=10 / psy=1 / psy_rd=1.50:0.15 / mixed_ref=1 / me_range=24 / chroma_me=1 / trellis=2 / 8x8dct=1 / cqm=0 / deadzone=21,11 / fast_pskip=0 / chroma_qp_offset=-3 / threads=6 / lookahead_threads=1 / sliced_threads=0 / nr=0 / decimate=0 / interlaced=0 / bluray_compat=0 / constrained_intra=0 / bframes=8 / b_pyramid=2 / b_adapt=2 / b_bias=0 / direct=3 / weightb=1 / open_gop=0 / weightp=2 / keyint=250 / keyint_min=24 / scenecut=40 / intra_refresh=0 / rc_lookahead=60 / rc=crf / mbtree=1 / crf=21.5 / qcomp=0.60 / qpmin=0 / qpmax=69 / qpstep=4 / ip_ratio=1.40 / aq=3:0.50
Default                                  : Yes
Forced                                   : No
Color range                              : Limited
Matrix coefficients                      : BT.709

Audio
ID                                       : 2
Format                                   : FLAC
Format/Info                              : Free Lossless Audio Codec
Codec ID                                 : A_FLAC
Duration                                 : 1 h 15 min
Bit rate mode                            : Variable
Bit rate                                 : 657 kb/s
Channel(s)                               : 1 channel
Channel layout                           : C
Sampling rate                            : 48.0 kHz
Frame rate                               : 11.719 FPS (4096 SPF)
Bit depth                                : 24 bits
Compression mode                         : Lossless
Stream size                              : 354 MiB (7%)
Writing library                          : libFLAC 1.3.2 (UTC 2017-01-01)
Language                                 : English
Default                                  : Yes
Forced                                   : No

Text
ID                                       : 3
Format                                   : PGS
Muxing mode                              : zlib
Codec ID                                 : S_HDMV/PGS
Codec ID/Info                            : Picture based subtitle format used on BDs/HD-DVDs
Duration                                 : 1 h 13 min
Bit rate                                 : 55.4 kb/s
Count of elements                        : 2992
Stream size                              : 29.3 MiB (1%)
Title                                    : SDH
Language                                 : English
Default                                  : No
Forced                                   : No

Menu
00:00:00.000                             : en:Chapter 01
00:09:43.125                             : en:Chapter 02
00:15:42.542                             : en:Chapter 03
00:21:14.750                             : en:Chapter 04
00:26:32.125                             : en:Chapter 05
00:32:08.792                             : en:Chapter 06
00:38:45.333                             : en:Chapter 07
00:46:12.417                             : en:Chapter 08
00:54:20.833                             : en:Chapter 09
01:05:36.167                             : en:Chapter 10





                                                                                                                                                                                                        
                                                                                                                                                                                                                                                                                                                                                                                                                                                                                                                                                                                                                                                                                                                                                                                                                                                        
d19a2c92802ed76ecd351456235b06f3.zip (26.46 KB)

回复

使用道具 举报

百度云电影论坛 ( 辽ICP备17019482号-3 )

本网站所有资源来自网络,如无意中侵犯了您的权益,请发邮件至 [email protected],立即清除相关链接

GMT+8, 2021-1-28 18:35 , Processed in 0.096048 second(s), 22 queries .

Powered by Discuz! X3.2

© 2001-2013 Comsenz Inc.

快速回复 返回顶部 返回列表