百度云电影论坛

 找回密码
 立即注册

肥龙过江 Enter.the.Fat.Dragon.1978.720p.BluRay.x264-GUACAMOLE 6.01GB

[复制链接]

百度云电影 发表于 2020-12-31 09:51:21 | 显示全部楼层 |阅读模式
-->
帖子完整标题:肥龙过江 Enter.the.Fat.Dragon.1978.720p.BluRay.x264-GUACAMOLE 6.01GB





◎译  名 Enter the Fat Dragon
◎片  名 肥龙过江
◎年  代 1978
◎产  地 中国香港
◎类  别 喜剧 / 动作
◎语  言 粤语
◎上映日期 1978-07-13
◎IMDb评分  6.8/10 from 672 users
◎IMDb链接  https://www.imdb.com/title/tt0077538/
◎豆瓣评分 6.5/10 from 758 users
◎豆瓣链接 https://movie.douban.com/subject/1293357/
◎片  长 USA: 100 分钟
◎导  演 洪金宝 Sammo Hung Kam-Bo
◎编  剧 倪匡 Kuang Ni
◎主  演 洪金宝 Sammo Hung Kam-Bo
       李海淑 Hai-shu Li
       刘香萍 Ankie Lau
       陆柱石 Chu Shih Lu
       林建明 Meg Lam
       乔宏 Roy Chiao
       梁家仁 Ka-Yan Leung
       杨群 Peter Yang Kwan
       李海生 Hoi Sang Lee
       罗国辉 Kuo-Hui Lo
       大卫·尼克 David Nick
       元彪 Biao Yuen
       孟海 Hoi Mang
       钟发 Fat Chung
       火星 Mars
       陈会毅 Billy Chan
       钱月笙 Yuet Sang Chin
       冯克安 Hark-On Fung
       陈狄克 Ti-ko Chen
       赵志凌 Chi-Ling Chiu
       曾志伟 Eric Tsang
       王伟 Wai Wong
       西瓜刨 Gwa-pau Sai
       冯敬文 Ging Man Fung

◎标  签 洪金宝 | 香港 | 喜剧 | 动作 | 香港电影 | 1978 | 功夫 | 梁家仁

◎简  介

  在一个平凡的乡村,居住着胖乎乎的青年阿龙(洪金宝 饰)。阿龙自幼崇拜国际武打明星李小龙,所以平日里不仅刻意打扮成偶像的模样,还专门学习了截拳道。别看他圆滚滚的样子,打起拳来倒是有那么点样子。只是这么一个不安分的青年窝在村里总不是个事,于是老爹就让他去城里投奔叔叔找份职业。初次来到花花世界香港的阿龙目不暇接,在此过程中他闹出不少笑话,当然行侠仗义、好呈拳脚的性格也给叔叔带来许多麻烦。经女孩阿珍介绍,阿龙得以进入一家酒店打工。谁知却在这里不小心惹到有着黑道背景的乔九爷(乔宏 饰)。
  
  名不见经传的小人物挑战黑势力无异于蚍蜉撼树,阿龙面临人生最大的危机……
Video
ID                                       : 1
Format                                   : AVC
Format/Info                              : Advanced Video Codec
Format profile                           : [email protected]
Format settings                          : CABAC / 8 Ref Frames
Format settings, CABAC                   : Yes
Format settings, Reference frames        : 8 frames
Codec ID                                 : V_MPEG4/ISO/AVC
Duration                                 : 1 h 32 min
Bit rate                                 : 7 214 kb/s
Width                                    : 1 280 pixels
Height                                   : 510 pixels
Display aspect ratio                     : 2.510
Frame rate mode                          : Constant
Frame rate                               : 24.000 FPS
Color space                              : YUV
Chroma subsampling                       : 4:2:0
Bit depth                                : 8 bits
Scan type                                : Progressive
Bits/(Pixel*Frame)                       : 0.460
Stream size                              : 4.66 GiB (78%)
Writing library                          : x264 core 161 r3027 4121277
Encoding settings                        : cabac=1 / ref=8 / deblock=1:-3:-3 / analyse=0x3:0x133 / me=umh / subme=9 / psy=1 / psy_rd=1.00:0.00 / mixed_ref=1 / me_range=16 / chroma_me=1 / trellis=2 / 8x8dct=1 / cqm=0 / deadzone=21,11 / fast_pskip=0 / chroma_qp_offset=-2 / threads=16 / lookahead_threads=1 / sliced_threads=0 / nr=0 / decimate=1 / interlaced=0 / bluray_compat=0 / constrained_intra=0 / bframes=3 / b_pyramid=2 / b_adapt=2 / b_bias=0 / direct=3 / weightb=1 / open_gop=0 / weightp=2 / keyint=250 / keyint_min=23 / scenecut=40 / intra_refresh=0 / rc_lookahead=60 / rc=crf / mbtree=1 / crf=17.3 / qcomp=0.60 / qpmin=0 / qpmax=69 / qpstep=4 / ip_ratio=1.40 / aq=3:0.60
Default                                  : Yes
Forced                                   : No
Color range                              : Limited
Color primaries                          : BT.709
Transfer characteristics                 : BT.709
Matrix coefficients                      : BT.709

Audio #1
ID                                       : 2
Format                                   : FLAC
Format/Info                              : Free Lossless Audio Codec
Codec ID                                 : A_FLAC
Duration                                 : 1 h 32 min
Bit rate mode                            : Variable
Bit rate                                 : 1 031 kb/s
Channel(s)                               : 2 channels
Channel layout                           : L R
Sampling rate                            : 48.0 kHz
Frame rate                               : 11.719 FPS (4096 SPF)
Bit depth                                : 24 bits
Compression mode                         : Lossless
Stream size                              : 683 MiB (11%)
Writing library                          : libFLAC 1.2.1 (UTC 2007-09-17)
Language                                 : Chinese
Default                                  : Yes
Forced                                   : No

Audio #2
ID                                       : 3
Format                                   : FLAC
Format/Info                              : Free Lossless Audio Codec
Codec ID                                 : A_FLAC
Duration                                 : 1 h 32 min
Bit rate mode                            : Variable
Bit rate                                 : 919 kb/s
Channel(s)                               : 2 channels
Channel layout                           : L R
Sampling rate                            : 48.0 kHz
Frame rate                               : 11.719 FPS (4096 SPF)
Bit depth                                : 24 bits
Compression mode                         : Lossless
Stream size                              : 609 MiB (10%)
Writing library                          : libFLAC 1.2.1 (UTC 2007-09-17)
Language                                 : English
Default                                  : No
Forced                                   : No

Audio #3
ID                                       : 4
Format                                   : AAC LC
Format/Info                              : Advanced Audio Codec Low Complexity
Codec ID                                 : A_AAC-2
Duration                                 : 1 h 32 min
Bit rate                                 : 121 kb/s
Channel(s)                               : 2 channels
Channel layout                           : L R
Sampling rate                            : 48.0 kHz
Frame rate                               : 46.875 FPS (1024 SPF)
Compression mode                         : Lossy
Stream size                              : 80.1 MiB (1%)
Title                                    : Commentary
Language                                 : English
Default                                  : No
Forced                                   : No

Text #1
ID                                       : 5
Format                                   : UTF-8
Codec ID                                 : S_TEXT/UTF8
Codec ID/Info                            : UTF-8 Plain Text
Duration                                 : 1 h 31 min
Bit rate                                 : 30 b/s
Count of elements                        : 811
Stream size                              : 20.4 KiB (0%)
Language                                 : English
Default                                  : Yes
Forced                                   : Yes

Text #2
ID                                       : 6
Format                                   : PGS
Muxing mode                              : zlib
Codec ID                                 : S_HDMV/PGS
Codec ID/Info                            : Picture based subtitle format used on BDs/HD-DVDs
Duration                                 : 1 h 31 min
Bit rate                                 : 21.2 kb/s
Count of elements                        : 1622
Stream size                              : 13.9 MiB (0%)
Language                                 : English
Default                                  : No
Forced                                   : No

Menu
00:00:00.000                             : en:00:00:00.000
00:08:08.917                             : en:00:08:08.917
00:16:18.917                             : en:00:16:18.917
00:23:41.333                             : en:00:23:41.333
00:33:03.917                             : en:00:33:03.917
00:39:55.083                             : en:00:39:55.083
00:49:59.292                             : en:00:49:59.292
01:01:26.625                             : en:01:01:26.625
01:06:14.125                             : en:01:06:14.125
01:12:35.500                             : en:01:12:35.500
01:18:50.708                             : en:01:18:50.708
01:24:40.458                             : en:01:24:40.458





                                                                                                                                                                                                        
                                                                                                                                                                                                                                                                                                                                                                                                                                                                                                                                                                                                                                                                                                                                                                                                                                                        
e719df7c51abf6d813d996766dc7fdce.zip (30.76 KB)

回复

使用道具 举报

百度云电影论坛 ( 辽ICP备17019482号-3 )

本网站所有资源来自网络,如无意中侵犯了您的权益,请发邮件至 [email protected],立即清除相关链接

GMT+8, 2021-1-16 23:29 , Processed in 0.102998 second(s), 22 queries .

Powered by Discuz! X3.2

© 2001-2013 Comsenz Inc.

快速回复 返回顶部 返回列表