百度云电影论坛

 找回密码
 立即注册

远走高飞/分离 Come.Away.2020.1080p.BluRay.x264.DTS-MT 9.99GB

[复制链接]

百度云电影 发表于 2020-12-31 09:50:25 | 显示全部楼层 |阅读模式
-->
帖子完整标题:远走高飞/分离 Come.Away.2020.1080p.BluRay.x264.DTS-MT 9.99GB





◎译  名 远走高飞/分离/小飞侠与爱丽丝: 魔幻奇缘(港)/爱丽丝与梦幻岛(台)/离开
◎片  名 Come Away
◎年  代 2020
◎产  地 英国,美国
◎类  别 剧情 / 奇幻 / 冒险
◎语  言 英语
◎上映日期 2020-01-24(圣丹斯电影节) / 2020-11-13(美国)
◎IMDb评分  5.9/10 from 1686 users
◎IMDb链接  
◎豆瓣评分 4.1/10 from 295 users
◎豆瓣链接 
◎片  长 94分钟
◎导  演 布兰达?查普曼 Brenda Chapman
◎编  剧 玛丽莎·凯特·古德希尔 Marissa Kate Goodhill / J·M·巴利 J.M. Barrie / 路易斯·卡罗尔 Lewis Carroll
◎主  演 安吉丽娜·朱莉 Angelina Jolie
       凯拉·查恩萨 Keira Chansa
       乔丹·A·纳什 Jordan A. Nash
       大卫·奥伊罗 David Oyelowo
       迈克尔·凯恩 Michael Caine
       古古·姆巴塔-劳 Gugu Mbatha-Raw
       里斯·耶茨 Reece Yates
       珍妮·加洛韦 Jenny Galloway
       安娜·钱斯勒 Anna Chancellor
       奈德·丹内利 Ned Dennehy
       杰克·维尔 Jack Veal
       克拉克·彼得斯 Clarke Peters
       大卫·吉亚西 David Gyasi
       肖恩·贝克 Sean Baker
       德里克·雅各比 Derek Jacobi
       罗杰·阿什顿-格里菲斯 Roger Ashton-Griffiths
       达米恩·奥哈尔 Damian O'Hare
       乔·惠特利 Jo Wheatley
       Martin Ballantyne
       乔安娜·希雅 Johanna Thea

◎标  签 奇幻 | 2020 | 美国 | 家庭 | 冒险 | 英国 | 剧情 | 电影

◎简  介

  所有的童话传奇都来自梦想。讲述Rose一家人原本过著幸福快乐的日子,她拥有三个天真爱作梦的孩子,但当哥哥意外去世,面对丧失挚亲之痛,整个家庭都陷入悲伤的情绪之中。其中两个兄妹彼得与爱丽丝更为了逃避残酷的现实,分别走入梦幻岛(Neverland)及仙境世界 (Wonderland)。而安洁莉娜裘莉正是饰演这对兄妹的母亲Rose。这个故事写在爱丽丝前往兔子洞以及彼得潘成为小飞侠之前,《勇敢传说》导演布兰妲查普曼将带领你颠覆所有想像,探索一场爱与梦想的奇幻旅程…!
Video
ID                                       : 1
Format                                   : AVC
Format/Info                              : Advanced Video Codec
Format profile                           :
Format settings                          : CABAC / 5 Ref Frames
Format settings, CABAC                   : Yes
Format settings, Reference frames        : 5 frames
Codec ID                                 : V_MPEG4/ISO/AVC
Duration                                 : 1 h 33 min
Bit rate                                 : 13.7 Mb/s
Width                                    : 1 920 pixels
Height                                   : 804 pixels
Display aspect ratio                     : 2.40:1
Frame rate mode                          : Constant
Frame rate                               : 24.000 FPS
Color space                              : YUV
Chroma subsampling                       : 4:2:0
Bit depth                                : 8 bits
Scan type                                : Progressive
Bits/(Pixel*Frame)                       : 0.370
Stream size                              : 9.00 GiB (90%)
Writing library                          : x264 core 157 r2938 2b00a84  Mod
Encoding settings                        : cabac=1 / ref=5 / deblock=1:-3:-3 / analyse=0x3:0x133 / me=umh / subme=10 / psy=1 / psy_rd=1.05:0.00 / mixed_ref=1 / me_range=32 / chroma_me=1 / trellis=2 / 8x8dct=1 / cqm=0 / deadzone=21,11 / fast_pskip=0 / chroma_qp_offset=-2 / threads=12 / lookahead_threads=2 / sliced_threads=0 / nr=0 / decimate=0 / interlaced=0 / bluray_compat=0 / constrained_intra=0 / bframes=8 / b_pyramid=2 / b_adapt=2 / b_bias=0 / direct=3 / weightb=1 / open_gop=0 / weightp=2 / keyint=250 / keyint_min=24 / scenecut=40 / intra_refresh=0 / rc_lookahead=250 / rc=crf / mbtree=0 / crf=16.8 / qcomp=0.60 / qpmin=0 / qpmax=69 / qpstep=4 / vbv_maxrate=62500 / vbv_bufsize=78125 / crf_max=0.0 / nal_hrd=none / filler=0 / ip_ratio=1.30 / pb_ratio=1.20 / aq=3:0.80
Language                                 : English
Default                                  : Yes
Forced                                   : No
Color range                              : Limited
Color primaries                          : BT.709
Matrix coefficients                      : BT.709

Audio
ID                                       : 2
Format                                   : DTS
Format/Info                              : Digital Theater Systems
Codec ID                                 : A_DTS
Duration                                 : 1 h 33 min
Bit rate mode                            : Constant
Bit rate                                 : 1 509 kb/s
Channel(s)                               : 6 channels
Channel layout                           : C L R Ls Rs LFE
Sampling rate                            : 48.0 kHz
Frame rate                               : 93.750 FPS (512 SPF)
Bit depth                                : 24 bits
Compression mode                         : Lossy
Stream size                              : 1 013 MiB (10%)
Language                                 : English
Default                                  : Yes
Forced                                   : No

Text
ID                                       : 3
Format                                   : UTF-8
Codec ID                                 : S_TEXT/UTF8
Codec ID/Info                            : UTF-8 Plain Text
Duration                                 : 1 h 26 min
Bit rate                                 : 36 b/s
Count of elements                        : 812
Stream size                              : 23.1 KiB (0%)
Language                                 : English
Default                                  : Yes
Forced                                   : No

Menu
00:00:00.000                             : en:Chapter 01
00:12:19.208                             : en:Chapter 02
00:23:21.417                             : en:Chapter 03
00:34:44.750                             : en:Chapter 04
00:46:40.667                             : en:Chapter 05
01:00:24.208                             : en:Chapter 06
01:13:51.417                             : en:Chapter 07
01:27:52.000                             : en:Chapter 08





                                                                                                                                                                                                        
                                                                                                                                                                                                                                                                                                                                                                                                                                                                                                                                                                                                                                                                                                                                                                                                                                                        
c312db45c54f9ada9811b0ed9404aacd.zip (50.57 KB)

回复

使用道具 举报

百度云电影论坛 ( 辽ICP备17019482号-3 )

本网站所有资源来自网络,如无意中侵犯了您的权益,请发邮件至 [email protected],立即清除相关链接

GMT+8, 2021-1-20 05:18 , Processed in 0.095794 second(s), 22 queries .

Powered by Discuz! X3.2

© 2001-2013 Comsenz Inc.

快速回复 返回顶部 返回列表