百度云电影论坛

 找回密码
 立即注册

欢乐时光谋杀案/快乐时光凶杀案 The.Happytime.Murders.2018.1080p....

[复制链接]

百度云电影 发表于 2020-10-18 09:17:54 | 显示全部楼层 |阅读模式




◎译  名 欢乐时光谋杀案 / 快乐时光凶杀案 / 賤偵MADAM摷公仔(港)
◎片  名 The Happytime Murders
◎年  代 2018
◎产  地 美国
◎类  别 喜剧 / 动作 / 悬疑 / 犯罪
◎语  言 英语
◎上映日期 2018-08-24(美国)
◎IMDb评分  5.4/10 from 22794 users
◎片  长 91分钟
◎导  演 布赖恩·汉森 Brian Henson
◎编  剧 托德·博格 Todd Berger / Dee Austin Robertson
◎主  演 梅丽莎·麦卡西 Melissa McCarthy
       伊丽莎白·班克斯 Elizabeth Banks
       乔尔·麦克哈尔 Joel McHale
       玛娅·鲁道夫 Maya Rudolph
       莱斯利·大卫·贝克 Leslie David Baker
       布赖恩·汉森 Brian Henson
       欧阳万成 Jimmy O. Yang
       比尔·巴雷塔 Bill Barretta
       吴辛惠 Cynthy Wu
       瑞安·高卢 Ryan Gaul
       米奇·席尔帕 Mitch Silpa
       胡安娜·布斯彻 Julianne Buescher


◎标  签 喜剧 | 美国 | 犯罪 | 黑色幽默 | 2018 | 搞笑 | 悬疑 | 奇幻

◎简  介  

  这部电影设定在一个人类和布偶共同生存的世界。某天开始,80年代电视剧《欢乐时光帮》的布偶卡司们接连被谋杀,由人类和布偶组成的颇不搭调的侦探二人组开始展开调查。

◎获奖情况  

  第39届金酸莓奖(2019)
  最差影片(提名)
  最差女主角 梅丽莎·麦卡西
  最差男配角(提名) 乔尔·麦克哈尔
  最差导演(提名) 布赖恩·汉森
  最差剧本(提名) 托德·博格
  最差银幕组合(提名)
Video
ID                                       : 1
Format                                   : AVC
Format/Info                              : Advanced Video Codec
Format settings                          : CABAC / 4 Ref Frames
Format settings, CABAC                   : Yes
Format settings, ReFrames                : 4 frames
Codec ID                                 : V_MPEG4/ISO/AVC
Duration                                 : 1 h 30 min
Bit rate                                 : 11.5 Mb/s
Width                                    : 1 920 pixels
Height                                   : 800 pixels
Display aspect ratio                     : 2.40:1
Frame rate mode                          : Constant
Frame rate                               : 23.976 (24000/1001/189150) FPS
Color space                              : YUV
Chroma subsampling                       : 4:2:0
Bit depth                                : 8 bits
Scan type                                : Progressive
Bits/(Pixel*Frame)                       : 0.312
Stream size                              : 7.29 GiB (83%)
Title                                    : The.Happytime.Murders.2018.1080p.BluRay.x264.DTS-HD.MA.5.1-FGT
Writing library                          : x264 core 148 r2795M aaa9aa8
Encoding settings                        : cabac=1 / ref=4 / deblock=1:-2:-2 / analyse=0x3:0x113 / me=umh / subme=9 / psy=1 / psy_rd=1.00:0.15 / mixed_ref=1 / me_range=16 / chroma_me=1 / trellis=2 / 8x8dct=1 / cqm=0 / deadzone=21,11 / fast_pskip=1 / chroma_qp_offset=-3 / threads=24 / lookahead_threads=3 / sliced_threads=0 / nr=0 / decimate=1 / interlaced=0 / bluray_compat=0 / constrained_intra=0 / bframes=3 / b_pyramid=2 / b_adapt=1 / b_bias=0 / direct=3 / weightb=1 / open_gop=0 / weightp=2 / keyint=250 / keyint_min=25 / scenecut=40 / intra_refresh=0 / rc_lookahead=50 / rc=2pass / mbtree=1 / bitrate=11500 / ratetol=1.0 / qcomp=0.60 / qpmin=0 / qpmax=69 / qpstep=4 / cplxblur=20.0 / qblur=0.5 / vbv_maxrate=31250 / vbv_bufsize=31250 / nal_hrd=none / filler=0 / ip_ratio=1.40 / aq=1:1.00
Language                                 : English
Default                                  : Yes
Forced                                   : No

Audio
ID                                       : 2
Format                                   : DTS XLL
Format/Info                              : Digital Theater Systems
Commercial name                          : DTS-HD Master Audio
Codec ID                                 : A_DTS
Duration                                 : 1 h 30 min
Bit rate mode                            : Variable
Bit rate                                 : 2 304 kb/s
Channel(s)                               : 6 channels
Channel layout                           : C L R Ls Rs LFE
Sampling rate                            : 48.0 kHz
Frame rate                               : 93.750 FPS (512 SPF)
Bit depth                                : 16 bits
Compression mode                         : Lossless
Stream size                              : 1.46 GiB (17%)
Title                                    : The.Happytime.Murders.2018.1080p.BluRay.x264.DTS-HD.MA.5.1-FGT
Language                                 : English
Default                                  : Yes
Forced                                   : No

Text #1
ID                                       : 3
Format                                   : UTF-8
Codec ID                                 : S_TEXT/UTF8
Codec ID/Info                            : UTF-8 Plain Text
Duration                                 : 1 h 19 min
Bit rate                                 : 91 b/s
Count of elements                        : 1805
Stream size                              : 53.4 KiB (0%)
Title                                    : English-SRT
Language                                 : English
Default                                  : Yes
Forced                                   : No

Text #2
ID                                       : 4
Format                                   : PGS
Muxing mode                              : zlib
Codec ID                                 : S_HDMV/PGS
Codec ID/Info                            : Picture based subtitle format used on BDs/HD-DVDs
Duration                                 : 1 h 20 min
Bit rate                                 : 64.1 kb/s
Count of elements                        : 3952
Stream size                              : 36.7 MiB (0%)
Title                                    : English-PGS
Language                                 : English
Default                                  : No
Forced                                   : No

Menu
00:00:00.000                             : en:Chapter 1
00:08:35.765                             : en:Chapter 2
00:15:12.995                             : en:Chapter 3
00:22:23.676                             : en:Chapter 4
00:31:17.250                             : en:Chapter 5
00:38:13.208                             : en:Chapter 6
00:44:11.899                             : en:Chapter 7
00:51:28.752                             : en:Chapter 8
01:00:52.524                             : en:Chapter 9
01:08:02.662                             : en:Chapter 10
01:14:15.868                             : en:Chapter 11
01:20:37.541                             : en:Chapter 12





                                                                                                                                                                                                        
                                                                                                                                                                                                                                                                                                                                                                                                                                                                                    
c92cf32e71bf08b3a3f2d129fd00cba7.torrent (88.28 KB)

回复

使用道具 举报

百度云电影论坛 ( 辽ICP备17019482号-3 )

本网站所有资源来自网络,如无意中侵犯了您的权益,请发邮件至 [email protected],立即清除相关链接

GMT+8, 2020-10-29 13:22 , Processed in 0.113652 second(s), 22 queries .

Powered by Discuz! X3.2

© 2001-2013 Comsenz Inc.

快速回复 返回顶部 返回列表