百度云电影论坛

 找回密码
 立即注册

淘气大侦探 Sherlock.Gnomes.2018.1080p.BluRay.x264.DTS-HD.MA.7.1-FGT 6.57GB

[复制链接]

百度云电影 发表于 2020-10-18 09:17:48 | 显示全部楼层 |阅读模式



◎译  名 淘气大侦探 / Gnomeo & Juliet 2 / Gnomeo & Juliet: Sherlock Gnomes / Gnomeo and Juliet 2 / 吉诺密欧与朱丽叶2 / 吉诺密欧与朱丽叶2:夏洛克·糯尔摩斯 / 神探福尔摩侏(港) / 糯尔摩斯(台)
◎片  名 Sherlock Gnomes
◎年  代 2018
◎产  地 英国 / 美国
◎类  别 喜剧 / 动画 / 冒险
◎语  言 英语
◎上映日期 2018-03-23(美国) / 2018-05-11(英国) / 2018-07-20(中国大陆)
◎IMDb评分  5.2/10 from 9656 users
◎片  长 86分钟
◎导  演 约翰·斯蒂文森 John Stevenson
◎编  剧 本·扎佐夫 Ben Zazove / 安迪·赖利 Andy Riley / 凯文·塞西尔 Kevin Cecil / 埃米莉·库克 Emily Cook / 凯茜·格林伯格 Kathy Greenberg
◎主  演 詹姆斯·麦卡沃伊 James McAvoy
       艾米莉·布朗特 Emily Blunt
       约翰尼·德普 Johnny Depp
       切瓦特·埃加福特 Chiwetel Ejiofor
       玛丽·布莱姬 Mary J. Blige
       迈克尔·凯恩 Michael Caine
       玛吉·史密斯 Maggie Smith
       凯利·阿斯博瑞 Kelly Asbury
       德克斯特·弗莱彻 Dexter Fletcher
       马特·卢卡斯 Matt Lucas
       斯戴芬·莫昌特 Stephen Merchant
       奥兹·奥斯朋 Ozzy Osbourne
       罗莎莉·克雷格 Rosalie Craig
       詹米·德米特鲁 Jamie Demetriou
       史蒂夫·汉密尔顿·肖 Steve Hamilton Shaw
       吴汉章 James Hong
       阿什利·詹森 Ashley Jensen
       斯蒂芬·怀特 Stephen Wight
       朱丽·沃特斯 Julie Walters
       理查德·威尔逊 Richard Wilson


◎标  签 动画 | 喜剧 | 英国 | 冒险 | 2018 | 美国 | 悬疑 | 爱情

◎简  介  

  备受喜爱的花园装饰小矮人糯米欧(詹姆斯·麦卡沃伊 James McAvoy 配音)和茱丽叶(艾米莉·布朗特 Emily Blunt 配音)回来了,这回他们将前往伦敦展开全新的冒险旅程。当糯米欧和茱丽叶第一次和家人朋友来到这个城市的时候,他们最担心的就是新的花园能否及时在春天的来临前准备好,但是他们很快就发现有人到处在绑架小矮人。有天当两人回到家时,发现他们花园裡的小矮人们全都消失了!唯一能帮助他们的就是一个名叫糯尔摩斯(约翰尼·德普 Johnny Depp 配音)的小矮人。这位誓言保护全伦敦的花园装饰小矮人的名侦探和他的搭档华生(切瓦特·埃加福特 Chiwetel Ejiofor 配音)开始调查这个案件。这个谜团将会引领他们前往一个新的冒险旅程!他们将遇见很多前所未见的装饰角色,并探索城市未被发现的一面。

◎获奖情况  

  第39届金酸莓奖(2019)
  最差男主角(提名) 约翰尼·德普
  最差银幕组合(提名) 约翰尼·德普

  第39届伦敦影评人协会奖(2019)
  年度英国/爱尔兰女演员(提名) 艾米莉·布朗特
Video
ID                                       : 1
Format                                   : AVC
Format/Info                              : Advanced Video Codec
Format settings                          : CABAC / 5 Ref Frames
Format settings, CABAC                   : Yes
Format settings, ReFrames                : 5 frames
Codec ID                                 : V_MPEG4/ISO/AVC
Duration                                 : 1 h 26 min
Bit rate                                 : 5 739 kb/s
Width                                    : 1 920 pixels
Height                                   : 808 pixels
Display aspect ratio                     : 2.40:1
Frame rate mode                          : Constant
Frame rate                               : 23.976 FPS
Color space                              : YUV
Chroma subsampling                       : 4:2:0
Bit depth                                : 8 bits
Scan type                                : Progressive
Bits/(Pixel*Frame)                       : 0.154
Stream size                              : 3.46 GiB (53%)
Title                                    : Sherlock.Gnomes.2018.1080p.BluRay.x264.DTS-HD.MA.7.1-FGT
Writing library                          : x264 core 155 r2901 7d0ff22
Encoding settings                        : cabac=1 / ref=5 / deblock=1:0:0 / analyse=0x3:0x133 / me=umh / subme=7 / psy=1 / psy_rd=1.00:0.00 / mixed_ref=1 / me_range=16 / chroma_me=1 / trellis=1 / 8x8dct=1 / cqm=0 / deadzone=21,11 / fast_pskip=0 / chroma_qp_offset=-2 / threads=25 / lookahead_threads=4 / sliced_threads=0 / nr=0 / decimate=1 / interlaced=0 / bluray_compat=0 / constrained_intra=0 / bframes=3 / b_pyramid=2 / b_adapt=1 / b_bias=0 / direct=1 / weightb=1 / open_gop=0 / weightp=2 / keyint=250 / keyint_min=23 / scenecut=40 / intra_refresh=0 / rc_lookahead=40 / rc=2pass / mbtree=1 / bitrate=5739 / ratetol=1.0 / qcomp=0.60 / qpmin=0 / qpmax=69 / qpstep=4 / cplxblur=20.0 / qblur=0.5 / ip_ratio=1.40 / aq=1:1.00
Language                                 : English
Default                                  : Yes
Forced                                   : No

Audio
ID                                       : 2
Format                                   : DTS
Format/Info                              : Digital Theater Systems
Format profile                           : MA / Core
Codec ID                                 : A_DTS
Duration                                 : 1 h 26 min
Bit rate mode                            : Variable / Constant
Bit rate                                 : 5 095 kb/s / 1 509 kb/s
Channel(s)                               : 8 channels / 6 channels
Channel positions                        : Front: L C R, Side: L R, Back: L R, LFE / Front: L C R, Side: L R, LFE
Sampling rate                            : 48.0 kHz
Frame rate                               : 93.750 FPS (512 SPF)
Bit depth                                : 24 bits
Compression mode                         : Lossless / Lossy
Stream size                              : 3.07 GiB (47%)
Title                                    : Sherlock.Gnomes.2018.1080p.BluRay.x264.DTS-HD.MA.7.1-FGT
Language                                 : English
Default                                  : Yes
Forced                                   : No

Text #1
ID                                       : 3
Format                                   : UTF-8
Codec ID                                 : S_TEXT/UTF8
Codec ID/Info                            : UTF-8 Plain Text
Duration                                 : 1 h 24 min
Bit rate                                 : 65 b/s
Count of elements                        : 1308
Stream size                              : 40.6 KiB (0%)
Title                                    : English-SRT
Language                                 : English
Default                                  : Yes
Forced                                   : No

Text #2
ID                                       : 4
Format                                   : PGS
Muxing mode                              : zlib
Codec ID                                 : S_HDMV/PGS
Codec ID/Info                            : Picture based subtitle format used on BDs/HD-DVDs
Duration                                 : 1 h 24 min
Bit rate                                 : 47.3 kb/s
Count of elements                        : 2255
Stream size                              : 28.8 MiB (0%)
Title                                    : English-PGS
Language                                 : English
Default                                  : No
Forced                                   : No

Text #3
ID                                       : 5
Format                                   : PGS
Muxing mode                              : zlib
Codec ID                                 : S_HDMV/PGS
Codec ID/Info                            : Picture based subtitle format used on BDs/HD-DVDs
Duration                                 : 1 h 24 min
Bit rate                                 : 55.6 kb/s
Count of elements                        : 2829
Stream size                              : 33.8 MiB (1%)
Title                                    : English-SDH-PGS
Language                                 : English
Default                                  : No
Forced                                   : No

Menu
00:00:00.000                             : en:00:00:00.000
00:05:36.127                             : en:00:05:36.127
00:10:50.650                             : en:00:10:50.650
00:16:40.166                             : en:00:16:40.166
00:24:05.944                             : en:00:24:05.944
00:29:44.074                             : en:00:29:44.074
00:35:39.512                             : en:00:35:39.512
00:40:52.909                             : en:00:40:52.909
00:45:41.530                             : en:00:45:41.530
00:52:31.982                             : en:00:52:31.982
00:58:29.756                             : en:00:58:29.756
01:04:58.520                             : en:01:04:58.520
01:10:40.069                             : en:01:10:40.069
01:16:03.058                             : en:01:16:03.058
01:17:55.212                             : en:01:17:55.212





                                                                                                                                                                                                        


ebb7da58b9036b22f787da61fde948da.torrent (66.22 KB)

回复

使用道具 举报

百度云电影论坛 ( 辽ICP备17019482号-3 )

本网站所有资源来自网络,如无意中侵犯了您的权益,请发邮件至 [email protected],立即清除相关链接

GMT+8, 2020-10-29 13:13 , Processed in 0.101703 second(s), 22 queries .

Powered by Discuz! X3.2

© 2001-2013 Comsenz Inc.

快速回复 返回顶部 返回列表