百度云电影论坛

 找回密码
 立即注册

陌生人2 The.Strangers.Prey.at.Night.2018.1080p.BluRay.x264.DTS-HD.MA.5.1-F...

[复制链接]

百度云电影 发表于 2020-10-18 09:17:25 | 显示全部楼层 |阅读模式



◎译  名 陌生人2 / The Strangers 2 / 只杀陌生人(港 / 台)
◎片  名 The Strangers: Prey at Night
◎年  代 2018
◎产  地 美国
◎类  别 恐怖
◎语  言 英语
◎上映日期 2018-03-09(美国)
◎IMDb评分  5.2/10 from 25321 users
◎导  演 约翰内斯·罗伯茨 Johannes Roberts
◎编  剧 布莱恩·伯蒂诺 Bryan Bertino / 本·科泰 Ben Ketai
◎主  演 克里斯蒂娜·亨德里克斯 Christina Hendricks
       拜莉·麦迪逊 Bailee Madison
       马丁·亨德森 Martin Henderson
       艾玛·贝洛米 Emma Bellomy
       刘易斯·普尔曼 Lewis Pullman
       莉·恩斯林 Lea Enslin
       达米安·马菲 Damian Maffei
       丽雅·罗伯茨 Leah Roberts
       普雷斯顿·萨德莱 Preston Sadleir
       加布里埃尔·A·拜恩 Gabriel A. Byrne
       桑尼·迪克西特 Sunny Dixit


◎标  签 恐怖 | 惊悚 | 美国 | 血腥 | 犯罪 | 2018 | 虐杀 | 杀手

◎简  介  

  阳光明媚的周末,中年男子迈克(马丁·亨德森 Martin Henderson 饰)驱车带着妻子辛蒂(克里斯蒂娜·亨德里克斯 Christina Hendricks 饰)、儿子卢克(刘易斯·普尔曼 Lewis Pullman 饰)和女儿金赛(拜莉·麦迪逊 Bailee Madison 饰)踏上漫漫旅程。他们准备前往亲戚所在的城市,将叛逆的金赛送入一间新的寄宿学校。一路上本就争吵不断,偏偏在夜深人静的时刻他们所到达的露营地又空无一人。卢克受父母之托,肩负起开导妹妹的重任。兄妹俩边散步边聊天,结果意外在某栋房子里发现了叔叔和阿姨被人残忍杀害的尸体。
  略显迟钝的一家人很快发现,他们所有的联络方式均已被带着面具的神秘杀手所切断。针对陌生人的残酷杀戮,就在静寂肃杀的夜晚展开了……
Video
ID                                       : 1
Format                                   : AVC
Format/Info                              : Advanced Video Codec
Format settings                          : CABAC / 5 Ref Frames
Format settings, CABAC                   : Yes
Format settings, ReFrames                : 5 frames
Codec ID                                 : V_MPEG4/ISO/AVC
Duration                                 : 1 h 25 min
Bit rate                                 : 9 454 kb/s
Width                                    : 1 920 pixels
Height                                   : 808 pixels
Display aspect ratio                     : 2.40:1
Frame rate mode                          : Constant
Frame rate                               : 23.976 FPS
Color space                              : YUV
Chroma subsampling                       : 4:2:0
Bit depth                                : 8 bits
Scan type                                : Progressive
Bits/(Pixel*Frame)                       : 0.254
Stream size                              : 5.65 GiB (73%)
Title                                    : The.Strangers.Prey.at.Night.2018.1080p.BluRay.x264.DTS-HD.MA.5.1-FGT
Writing library                          : x264 core 155 r2901 7d0ff22
Encoding settings                        : cabac=1 / ref=5 / deblock=1:0:0 / analyse=0x3:0x133 / me=umh / subme=7 / psy=1 / psy_rd=1.00:0.00 / mixed_ref=1 / me_range=16 / chroma_me=1 / trellis=1 / 8x8dct=1 / cqm=0 / deadzone=21,11 / fast_pskip=0 / chroma_qp_offset=-2 / threads=25 / lookahead_threads=4 / sliced_threads=0 / nr=0 / decimate=1 / interlaced=0 / bluray_compat=0 / constrained_intra=0 / bframes=3 / b_pyramid=2 / b_adapt=1 / b_bias=0 / direct=1 / weightb=1 / open_gop=0 / weightp=2 / keyint=250 / keyint_min=23 / scenecut=40 / intra_refresh=0 / rc_lookahead=40 / rc=2pass / mbtree=1 / bitrate=9454 / ratetol=1.0 / qcomp=0.60 / qpmin=0 / qpmax=69 / qpstep=4 / cplxblur=20.0 / qblur=0.5 / ip_ratio=1.40 / aq=1:1.00
Language                                 : English
Default                                  : Yes
Forced                                   : No

Audio
ID                                       : 2
Format                                   : DTS
Format/Info                              : Digital Theater Systems
Format profile                           : MA / Core
Codec ID                                 : A_DTS
Duration                                 : 1 h 25 min
Bit rate mode                            : Variable / Constant
Bit rate                                 : 3 419 kb/s / 1 509 kb/s
Channel(s)                               : 6 channels
Channel positions                        : Front: L C R, Side: L R, LFE
Sampling rate                            : 48.0 kHz
Frame rate                               : 93.750 FPS (512 SPF)
Bit depth                                : 24 bits
Compression mode                         : Lossless / Lossy
Stream size                              : 2.05 GiB (27%)
Title                                    : The.Strangers.Prey.at.Night.2018.1080p.BluRay.x264.DTS-HD.MA.5.1-FGT
Language                                 : English
Default                                  : Yes
Forced                                   : No

Text #1
ID                                       : 3
Format                                   : UTF-8
Codec ID                                 : S_TEXT/UTF8
Codec ID/Info                            : UTF-8 Plain Text
Duration                                 : 1 h 13 min
Bit rate                                 : 26 b/s
Count of elements                        : 618
Stream size                              : 14.3 KiB (0%)
Title                                    : English-SRT
Language                                 : English
Default                                  : Yes
Forced                                   : No

Text #2
ID                                       : 4
Format                                   : PGS
Muxing mode                              : zlib
Codec ID                                 : S_HDMV/PGS
Codec ID/Info                            : Picture based subtitle format used on BDs/HD-DVDs
Duration                                 : 1 h 16 min
Bit rate                                 : 23.4 kb/s
Count of elements                        : 1663
Stream size                              : 12.8 MiB (0%)
Title                                    : English-PGS
Language                                 : English
Default                                  : No
Forced                                   : No

Text #3
ID                                       : 5
Format                                   : PGS
Muxing mode                              : zlib
Codec ID                                 : S_HDMV/PGS
Codec ID/Info                            : Picture based subtitle format used on BDs/HD-DVDs
Duration                                 : 1 h 21 min
Bit rate                                 : 13.6 kb/s
Count of elements                        : 1115
Stream size                              : 7.93 MiB (0%)
Title                                    : Spanish-PGS
Language                                 : Spanish
Default                                  : No
Forced                                   : No

Menu
00:00:00.000                             : en:Chapter 01
00:04:59.882                             : en:Chapter 02
00:08:49.153                             : en:Chapter 03
00:12:58.110                             : en:Chapter 04
00:17:23.917                             : en:Chapter 05
00:21:53.770                             : en:Chapter 06
00:24:53.909                             : en:Chapter 07
00:30:15.104                             : en:Chapter 08
00:34:45.208                             : en:Chapter 09
00:40:01.899                             : en:Chapter 10
00:44:48.727                             : en:Chapter 11
00:49:48.443                             : en:Chapter 12
00:53:12.606                             : en:Chapter 13
00:56:55.995                             : en:Chapter 14
00:58:20.705                             : en:Chapter 15
01:00:37.884                             : en:Chapter 16
01:05:21.709                             : en:Chapter 17
01:09:17.528                             : en:Chapter 18
01:14:59.036                             : en:Chapter 19
01:18:07.349                             : en:Chapter 20





                                                                                                                                                                                                        
                                                                                                                                                                                                                                          
0efce9de9afa7d615325080ce28de1c0.torrent (77.63 KB)

回复

使用道具 举报

百度云电影论坛 ( 辽ICP备17019482号-3 )

本网站所有资源来自网络,如无意中侵犯了您的权益,请发邮件至 [email protected],立即清除相关链接

GMT+8, 2020-10-29 13:31 , Processed in 0.106899 second(s), 22 queries .

Powered by Discuz! X3.2

© 2001-2013 Comsenz Inc.

快速回复 返回顶部 返回列表