百度云电影论坛

 找回密码
 立即注册

歌从何处来/假面天后 Quien.te.cantara.2018.SPANISH.1080p.BluRay.x264....

[复制链接]

百度云电影 发表于 2020-10-18 08:34:48 | 显示全部楼层 |阅读模式
帖子完整标题:歌从何处来/假面天后 Quien.te.cantara.2018.SPANISH.1080p.BluRay.x264.DTS-CHD 7.16GB





◎译  名 歌从何处来/假面天后(台)
◎片  名 Quién te cantará
◎年  代 2018
◎产  地 西班牙
◎类  别 剧情
◎语  言 西班牙语
◎上映日期 2018-09-08(多伦多国际电影节) / 2018-10-26(西班牙)
◎IMDb评分  7/10 from 2359 users
◎片  长 125分钟
◎导  演 卡洛斯·贝尔穆德 Carlos Vermut
◎编  剧 卡洛斯·贝尔穆德 Carlos Vermut
◎主  演 纳瓦·尼姆利 Najwa Nimri
       卡梅·埃利亚斯 Carme Elias
       纳塔利娅·德·莫利纳 Natalia de Molina
       胡里安·毕亚格兰 Julián Villagrán
       英玛·奎瓦斯 Inma Cuevas
       维多利亚·恩唐戈 Vicenta N'Dongo
       伊娃·略拉克 Eva Llorach
       卡罗琳娜·尤斯特 Carolina Yuste

◎标  签 西班牙 | 剧情 | 音乐 | 西班牙电影 | 2018 | 母女 | 女性题材 | 女性

◎简  介

  传奇巨星莉拉卡森封麦十年,却在复出演唱会前夕被发现倒卧海滩,苏醒后已严重失忆,不但忘了自己是谁,更遑论开口唱歌。单亲妈妈毕欧蕾妲靠着在卡拉 OK 酒吧的工作养大女儿, 却无法控制女儿无理的暴烈性情。身为莉拉的头号粉丝,翻唱金曲是她的日常,期待偶像复 出,则是她烂泥般的生活里,唯一的曙光。不忍巨星一蹶不振,经纪人找上了毕欧蕾妲,提 出史无前例的疯狂要求——「请粉丝来『教』偶像唱自己的歌」!
  
  西班牙新锐导演卡洛斯维穆特以独特的暗黑风格与迷幻节奏,编写两组深陷泥淖的女性角 色,绝处逢生地碰撞出点点星火。超强的演员,让她们看似云泥之别却又相系相生,不仅轮 番诠释的金曲串烧支支动听,互相映照的人生困境更是触动人心。

◎获奖情况

  第33届西班牙戈雅奖 ?(2019)
  最佳女主角(提名) 纳瓦·尼姆利
  最佳女配角(提名) 纳塔利娅·德·莫利纳
  最佳新人女演员 伊娃·略拉克
  最佳摄影(提名)
  最佳音效(提名)
  最佳服装设计(提名)
  最佳化妆与发型(提名)
  
  第66届圣塞巴斯蒂安国际电影节 ?(2018)
  金贝壳奖(提名) 卡洛斯·贝尔穆德
Video
ID                                       : 1
Format                                   : AVC
Format/Info                              : Advanced Video Codec
Format settings                          : CABAC / 4 Ref Frames
Format settings, CABAC                   : Yes
Format settings, Reference frames        : 4 frames
Codec ID                                 : V_MPEG4/ISO/AVC
Duration                                 : 2 h 4 min
Bit rate                                 : 6 736 kb/s
Width                                    : 1 920 pixels
Height                                   : 804 pixels
Display aspect ratio                     : 2.40:1
Frame rate mode                          : Constant
Frame rate                               : 24.000 FPS
Color space                              : YUV
Chroma subsampling                       : 4:2:0
Bit depth                                : 8 bits
Scan type                                : Progressive
Bits/(Pixel*Frame)                       : 0.182
Stream size                              : 5.85 GiB (82%)
Writing library                          : x264 core 157 r2969 d4099dd
Encoding settings                        : cabac=1 / ref=4 / deblock=1:-3:-3 / analyse=0x3:0x133 / me=umh / subme=10 / psy=1 / psy_rd=1.00:0.15 / mixed_ref=1 / me_range=64 / chroma_me=1 / trellis=2 / 8x8dct=1 / cqm=0 / deadzone=21,11 / fast_pskip=0 / chroma_qp_offset=-3 / threads=24 / lookahead_threads=4 / sliced_threads=0 / nr=0 / decimate=1 / interlaced=0 / bluray_compat=0 / constrained_intra=0 / bframes=8 / b_pyramid=2 / b_adapt=2 / b_bias=0 / direct=3 / weightb=1 / open_gop=0 / weightp=2 / keyint=300 / keyint_min=24 / scenecut=40 / intra_refresh=0 / rc_lookahead=60 / rc=crf / mbtree=1 / crf=18.0 / qcomp=0.60 / qpmin=0 / qpmax=69 / qpstep=4 / ip_ratio=1.40 / aq=2:1.00
Default                                  : Yes
Forced                                   : No

Audio
ID                                       : 2
Format                                   : DTS
Format/Info                              : Digital Theater Systems
Codec ID                                 : A_DTS
Duration                                 : 2 h 4 min
Bit rate mode                            : Constant
Bit rate                                 : 1 509 kb/s
Channel(s)                               : 6 channels
Channel layout                           : C L R Ls Rs LFE
Sampling rate                            : 48.0 kHz
Frame rate                               : 93.750 FPS (512 SPF)
Bit depth                                : 24 bits
Compression mode                         : Lossy
Stream size                              : 1.31 GiB (18%)
Language                                 : Spanish
Default                                  : Yes
Forced                                   : No

Text
ID                                       : 3
Format                                   : UTF-8
Codec ID                                 : S_TEXT/UTF8
Codec ID/Info                            : UTF-8 Plain Text
Duration                                 : 1 h 50 min
Bit rate                                 : 36 b/s
Count of elements                        : 1080
Stream size                              : 29.7 KiB (0%)
Language                                 : English
Default                                  : Yes
Forced                                   : Yes





                                                                                                                                                                                                        
                                                                                                                                                                                                                                          
8d1df0846d40a4308dab25c570a8a5df.zip (37.28 KB)

回复

使用道具 举报

百度云电影论坛 ( 辽ICP备17019482号-3 )

本网站所有资源来自网络,如无意中侵犯了您的权益,请发邮件至 [email protected],立即清除相关链接

GMT+8, 2020-10-26 14:54 , Processed in 0.094530 second(s), 22 queries .

Powered by Discuz! X3.2

© 2001-2013 Comsenz Inc.

快速回复 返回顶部 返回列表