百度云电影论坛

 找回密码
 立即注册

终点到达 Then.Came.You.2018.1080p.BluRay.x264-PSYCHD 7.65GB

[复制链接]

百度云电影 发表于 2020-10-18 08:34:42 | 显示全部楼层 |阅读模式
帖子完整标题:终点到达 Then.Came.You.2018.1080p.BluRay.x264-PSYCHD 7.65GB





◎译  名 终点到达/Arrivals/Departures/然后你来了/真爱,再出发(台)
◎片  名 Then Came You
◎年  代 2018
◎产  地 美国
◎类  别 剧情 / 喜剧 / 冒险
◎语  言 英语
◎上映日期 2018-10-12(伍德斯托克电影节) / 2019-02-01(美国)
◎IMDb评分  7/10 from 8756 users
◎片  长 97分钟
◎导  演 彼得·哈钦斯 Peter Hutchings
◎编  剧 费格尔·洛克 Fergal Rock
◎主  演 阿萨·巴特菲尔德 Asa Butterfield
       麦茜·威廉姆斯 Maisie Williams
       妮娜·杜波夫 Nina Dobrev
       佩顿·李斯特 Peyton R. List
       泰勒·霍奇林 Tyler Hoechlin
       郑肯 Ken Jeong
       索尼亚·瓦格尔 Sonya Walger
       大卫·科恩查内 David Koechner
       泰塔斯·伯吉斯 Tituss Burgess
       马格特·宾汉 Margot Bingham
       科林·莫斯 Colin Moss
       罗丝玛丽·霍华德 Rosemary Howard
       布丽亚娜·范思克思 Briana Venskus

◎标  签 青春 | 温情 | 成长 | 美国 | 爱情 | 死亡 | 治愈 | 剧情

◎简  介

  影片故事讲述挣扎在死亡边缘的斯凯(麦茜饰)和加尔文(阿萨饰)成为朋友,加尔文欲帮助斯凯完成她的愿望。在此期间,加尔文认清自己内心,同样还有萌动的爱情。
Video
ID                                       : 1
Format                                   : AVC
Format/Info                              : Advanced Video Codec
Format settings                          : CABAC / 5 Ref Frames
Format settings, CABAC                   : Yes
Format settings, Reference frames        : 5 frames
Codec ID                                 : V_MPEG4/ISO/AVC
Duration                                 : 1 h 36 min
Bit rate                                 : 9 799 kb/s
Width                                    : 1 920 pixels
Height                                   : 808 pixels
Display aspect ratio                     : 2.40:1
Frame rate mode                          : Constant
Frame rate                               : 23.976 (24000/1001/189150) FPS
Color space                              : YUV
Chroma subsampling                       : 4:2:0
Bit depth                                : 8 bits
Scan type                                : Progressive
Bits/(Pixel*Frame)                       : 0.263
Stream size                              : 6.47 GiB (85%)
Writing library                          : x264 core 157 r2970 5493be8
Encoding settings                        : cabac=1 / ref=5 / deblock=1:-3:-3 / analyse=0x3:0x113 / me=umh / subme=8 / psy=1 / psy_rd=1.00:0.00 / mixed_ref=1 / me_range=32 / chroma_me=1 / trellis=2 / 8x8dct=1 / cqm=0 / deadzone=21,11 / fast_pskip=1 / chroma_qp_offset=-2 / threads=25 / lookahead_threads=4 / sliced_threads=0 / nr=0 / decimate=1 / interlaced=0 / bluray_compat=0 / constrained_intra=0 / bframes=3 / b_pyramid=2 / b_adapt=2 / b_bias=0 / direct=3 / weightb=1 / open_gop=0 / weightp=2 / keyint=240 / keyint_min=24 / scenecut=40 / intra_refresh=0 / rc_lookahead=50 / rc=2pass / mbtree=1 / bitrate=9799 / ratetol=1.0 / qcomp=0.60 / qpmin=0 / qpmax=69 / qpstep=4 / cplxblur=20.0 / qblur=0.5 / ip_ratio=1.40 / aq=3:0.80
Default                                  : Yes
Forced                                   : No
Statistics Tags Issue                    : no_variable_data 1970-01-01 00:00:00 / no_variable_data 2010-02-22 21:41:29
FromStats_BitRate                        : 9788929
FromStats_Duration                       : 01:36:51.181000000
FromStats_FrameCount                     : 139329
FromStats_StreamSize                     : 7110655346

Audio
ID                                       : 2
Format                                   : DTS
Format/Info                              : Digital Theater Systems
Codec ID                                 : A_DTS
Duration                                 : 1 h 36 min
Bit rate mode                            : Constant
Bit rate                                 : 1 509 kb/s
Channel(s)                               : 6 channels
Channel layout                           : C L R Ls Rs LFE
Sampling rate                            : 48.0 kHz
Frame rate                               : 93.750 FPS (512 SPF)
Bit depth                                : 24 bits
Compression mode                         : Lossy
Stream size                              : 1.02 GiB (13%)
Language                                 : English
Default                                  : Yes
Forced                                   : No
Statistics Tags Issue                    : no_variable_data 1970-01-01 00:00:00 / no_variable_data 2010-02-22 21:41:29
FromStats_BitRate                        : 1508999
FromStats_Duration                       : 01:36:52.022000000
FromStats_FrameCount                     : 544877
FromStats_StreamSize                     : 1096292524

Text #1
ID                                       : 3
Format                                   : UTF-8
Codec ID                                 : S_TEXT/UTF8
Codec ID/Info                            : UTF-8 Plain Text
Language                                 : English
Default                                  : No
Forced                                   : No
Statistics Tags Issue                    : no_variable_data 1970-01-01 00:00:00 / no_variable_data 2010-02-22 21:41:29
FromStats_BitRate                        : 58
FromStats_Duration                       : 01:35:57.710000000
FromStats_FrameCount                     : 1369
FromStats_StreamSize                     : 42051

Text #2
ID                                       : 4
Format                                   : UTF-8
Codec ID                                 : S_TEXT/UTF8
Codec ID/Info                            : UTF-8 Plain Text
Title                                    : SDH
Language                                 : English
Default                                  : No
Forced                                   : No
Statistics Tags Issue                    : no_variable_data 1970-01-01 00:00:00 / no_variable_data 2010-02-22 21:41:29
FromStats_BitRate                        : 62
FromStats_Duration                       : 01:36:33.663000000
FromStats_FrameCount                     : 1470
FromStats_StreamSize                     : 44961

Menu
00:00:00.000                             : en:Chapter 01
00:08:12.701                             : en:Chapter 02
00:16:10.803                             : en:Chapter 03
00:23:58.395                             : en:Chapter 04
00:31:47.614                             : en:Chapter 05
00:38:47.784                             : en:Chapter 06
00:45:53.626                             : en:Chapter 07
00:53:39.341                             : en:Chapter 08
01:02:03.553                             : en:Chapter 09
01:09:12.607                             : en:Chapter 10
01:16:31.712                             : en:Chapter 11
01:24:57.134                             : en:Chapter 12





                                                                                                                                                                                                        


e545d9d60e270333c77c6844c52b0d06.zip (39.78 KB)

回复

使用道具 举报

百度云电影论坛 ( 辽ICP备17019482号-3 )

本网站所有资源来自网络,如无意中侵犯了您的权益,请发邮件至 [email protected],立即清除相关链接

GMT+8, 2020-10-26 14:35 , Processed in 0.090104 second(s), 22 queries .

Powered by Discuz! X3.2

© 2001-2013 Comsenz Inc.

快速回复 返回顶部 返回列表