百度云电影论坛

 找回密码
 立即注册

朋友感恩节 Friendsgiving.2020.1080p.BluRay.x264.DTS-FGT 8.70GB

[复制链接]

百度云电影 发表于 2020-10-18 08:34:31 | 显示全部楼层 |阅读模式
帖子完整标题:朋友感恩节 Friendsgiving.2020.1080p.BluRay.x264.DTS-FGT 8.70GB





◎译  名 朋友感恩节
◎片  名 Friendsgiving
◎年  代 2019
◎产  地 美国
◎类  别 喜剧
◎上映日期 2019-12-29(美国)
◎导  演 妮可·帕隆 Nicol Paone
◎编  剧 妮可·帕隆 Nicol Paone
◎主  演 玛琳·阿克曼 Malin Akerman
       凯特·丹尼斯 Kate Dennis
       简·西摩 Jane Seymour
       爱莎·泰勒 Aisha Tyler
       瑞恩·汉森 Ryan Hansen

◎简  介

  玛琳·阿克曼(《守望者》《亿万》)、凯特·丹宁斯、简·西摩尔(《伊甸园东》《妾似朝阳又照君》)加盟感恩节题材喜剧新片《朋友感恩节》(Friendsgiving),Nicol Paone编写剧本,并首次执导剧情长片。阿克曼饰演一个迷人的、刚刚离婚的女演员Molly,丹宁斯饰演刚刚被甩的同性恋闺蜜Abby,西摩尔饰演Molly的母亲Helen,来自瑞典。三人和一群亲密好友以及一些奇怪的熟人一起主办了一场功能失调、一团糟的感恩节晚宴。本·斯蒂勒、阿克曼制片,爱莎·泰勒、迪恩·科尔、瑞恩·汉森等参演。
Video
ID                                       : 1
Format                                   : AVC
Format/Info                              : Advanced Video Codec
Format settings                          : CABAC / 4 Ref Frames
Format settings, CABAC                   : Yes
Format settings, Reference frames        : 4 frames
Codec ID                                 : V_MPEG4/ISO/AVC
Duration                                 : 1 h 35 min
Bit rate                                 : 11.5 Mb/s
Width                                    : 1 920 pixels
Height                                   : 1 036 pixels
Display aspect ratio                     : 1.85:1
Frame rate mode                          : Constant
Frame rate                               : 23.976 (24000/1001/189150) FPS
Color space                              : YUV
Chroma subsampling                       : 4:2:0
Bit depth                                : 8 bits
Scan type                                : Progressive
Bits/(Pixel*Frame)                       : 0.241
Stream size                              : 7.69 GiB (88%)
Title                                    : Friendsgiving.2020.1080p.BluRay.x264.DTS-FGT
Writing library                          : x264 core 148 r2748 97eaef2
Encoding settings                        : cabac=1 / ref=4 / deblock=1:-2:-2 / analyse=0x3:0x113 / me=umh / subme=9 / psy=1 / psy_rd=1.00:0.15 / mixed_ref=1 / me_range=16 / chroma_me=1 / trellis=2 / 8x8dct=1 / cqm=0 / deadzone=21,11 / fast_pskip=1 / chroma_qp_offset=-3 / threads=72 / lookahead_threads=3 / sliced_threads=0 / nr=0 / decimate=1 / interlaced=0 / bluray_compat=0 / constrained_intra=0 / bframes=3 / b_pyramid=2 / b_adapt=1 / b_bias=0 / direct=3 / weightb=1 / open_gop=0 / weightp=2 / keyint=250 / keyint_min=25 / scenecut=40 / intra_refresh=0 / rc_lookahead=50 / rc=2pass / mbtree=1 / bitrate=11500 / ratetol=1.0 / qcomp=0.60 / qpmin=0 / qpmax=69 / qpstep=4 / cplxblur=20.0 / qblur=0.5 / vbv_maxrate=31250 / vbv_bufsize=31250 / nal_hrd=none / filler=0 / ip_ratio=1.40 / aq=1:1.00
Language                                 : English
Default                                  : Yes
Forced                                   : No

Audio
ID                                       : 2
Format                                   : DTS
Format/Info                              : Digital Theater Systems
Codec ID                                 : A_DTS
Duration                                 : 1 h 35 min
Bit rate mode                            : Constant
Bit rate                                 : 1 509 kb/s
Channel(s)                               : 6 channels
Channel layout                           : C L R Ls Rs LFE
Sampling rate                            : 48.0 kHz
Frame rate                               : 93.750 FPS (512 SPF)
Bit depth                                : 24 bits
Compression mode                         : Lossy
Stream size                              : 1.01 GiB (12%)
Title                                    : Friendsgiving.2020.1080p.BluRay.x264.DTS-FGT
Language                                 : English
Default                                  : Yes
Forced                                   : No

Text
ID                                       : 3
Format                                   : UTF-8
Codec ID                                 : S_TEXT/UTF8
Codec ID/Info                            : UTF-8 Plain Text
Duration                                 : 1 h 34 min
Bit rate                                 : 98 b/s
Count of elements                        : 1990
Stream size                              : 68.0 KiB (0%)
Language                                 : English
Default                                  : Yes
Forced                                   : No

Menu
00:00:00.000                             : en:Chapter 1
00:06:07.367                             : en:Chapter 2
00:10:15.782                             : en:Chapter 3
00:17:12.615                             : en:Chapter 4
00:24:11.533                             : en:Chapter 5
00:29:54.251                             : en:Chapter 6
00:34:58.722                             : en:Chapter 7
00:41:26.234                             : en:Chapter 8
00:46:32.873                             : en:Chapter 9
00:53:05.724                             : en:Chapter 10
00:59:45.916                             : en:Chapter 11
01:04:47.425                             : en:Chapter 12
01:12:02.485                             : en:Chapter 13
01:18:06.891                             : en:Chapter 14
01:24:09.544                             : en:Chapter 15
01:30:04.107                             : en:Chapter 16





     
c93cea3f2c2316a0faea56394eb96f4e.zip (44.16 KB)

回复

使用道具 举报

百度云电影论坛 ( 辽ICP备17019482号-3 )

本网站所有资源来自网络,如无意中侵犯了您的权益,请发邮件至 [email protected],立即清除相关链接

GMT+8, 2020-10-26 15:30 , Processed in 0.095915 second(s), 22 queries .

Powered by Discuz! X3.2

© 2001-2013 Comsenz Inc.

快速回复 返回顶部 返回列表