百度云电影论坛

 找回密码
 立即注册

让我来给你收尸/假死 Ill.Take.Your.Dead.2018.1080p.BluRay.x264-PSYCHD...

[复制链接]

百度云电影 发表于 2020-10-17 09:27:08 | 显示全部楼层 |阅读模式
帖子完整标题:让我来给你收尸/假死 Ill.Take.Your.Dead.2018.1080p.BluRay.x264-PSYCHD 6.55GB





◎译  名 让我来给你收尸 / 假死
◎片  名 I'll Take Your Dead
◎年  代 2018
◎产  地 加拿大
◎类  别 恐怖
◎语  言 英语
◎上映日期 2018-09-27(加拿大)
◎IMDb评分  5.7/10 from 2835 users
◎片  长 83分钟
◎导  演 Chad Archibald
◎编  剧 Jayme Laforest
◎主  演 艾丹·迪瓦恩 Aidan Devine
       艾娃·普雷斯顿 Ava Preston
       洁斯·萨尔圭罗 Jess Salgueiro


◎标  签 恐怖 | 惊悚 | 犯罪 | 加拿大 | 灵异 | 2018 | 儿童 | 加拿大电影

◎简  介   

  威廉有一份简单的工作:让尸体消失。这不是他喜欢甚至不想做的事,但由于情况超出他的控制,他在乡下的小农舍已经成为附近城市和帮派有关的谋杀案受害者的垃圾场。他的女儿格洛丽亚已经习惯了粗野的男人把尸体扔下。
Video
ID                                       : 1
Format                                   : AVC
Format/Info                              : Advanced Video Codec
Format settings                          : CABAC / 5 Ref Frames
Format settings, CABAC                   : Yes
Format settings, Reference frames        : 5 frames
Codec ID                                 : V_MPEG4/ISO/AVC
Duration                                 : 1 h 25 min
Bit rate                                 : 9 437 kb/s
Width                                    : 1 920 pixels
Height                                   : 808 pixels
Display aspect ratio                     : 2.40:1
Frame rate mode                          : Constant
Frame rate                               : 23.976 (24000/1001/189150) FPS
Color space                              : YUV
Chroma subsampling                       : 4:2:0
Bit depth                                : 8 bits
Scan type                                : Progressive
Bits/(Pixel*Frame)                       : 0.254
Stream size                              : 5.51 GiB (84%)
Writing library                          : x264 core 158 r2984 3759fcb
Encoding settings                        : cabac=1 / ref=5 / deblock=1:-3:-3 / analyse=0x3:0x113 / me=umh / subme=8 / psy=1 / psy_rd=1.00:0.00 / mixed_ref=1 / me_range=32 / chroma_me=1 / trellis=2 / 8x8dct=1 / cqm=0 / deadzone=21,11 / fast_pskip=1 / chroma_qp_offset=-2 / threads=25 / lookahead_threads=4 / sliced_threads=0 / nr=0 / decimate=1 / interlaced=0 / bluray_compat=0 / constrained_intra=0 / bframes=3 / b_pyramid=2 / b_adapt=2 / b_bias=0 / direct=3 / weightb=1 / open_gop=0 / weightp=2 / keyint=240 / keyint_min=24 / scenecut=40 / intra_refresh=0 / rc_lookahead=50 / rc=2pass / mbtree=1 / bitrate=9437 / ratetol=1.0 / qcomp=0.60 / qpmin=0 / qpmax=69 / qpstep=4 / cplxblur=20.0 / qblur=0.5 / ip_ratio=1.40 / aq=3:0.70
Default                                  : Yes
Forced                                   : No
Statistics Tags Issue                    : no_variable_data 1970-01-01 00:00:00 / no_variable_data 2010-02-22 21:41:29
FromStats_BitRate                        : 9415690
FromStats_Duration                       : 01:25:46.183000000
FromStats_FrameCount                     : 123385
FromStats_StreamSize                     : 6056857978

Audio
ID                                       : 2
Format                                   : DTS
Format/Info                              : Digital Theater Systems
Codec ID                                 : A_DTS
Duration                                 : 1 h 25 min
Bit rate mode                            : Constant
Bit rate                                 : 1 509 kb/s
Channel(s)                               : 6 channels
Channel layout                           : C L R Ls Rs LFE
Sampling rate                            : 48.0 kHz
Frame rate                               : 93.750 FPS (512 SPF)
Bit depth                                : 24 bits
Compression mode                         : Lossy
Stream size                              : 926 MiB (14%)
Language                                 : English
Default                                  : Yes
Forced                                   : No
Statistics Tags Issue                    : no_variable_data 1970-01-01 00:00:00 / no_variable_data 2010-02-22 21:41:29
FromStats_BitRate                        : 1508999
FromStats_Duration                       : 01:25:47.030000000
FromStats_FrameCount                     : 482534
FromStats_StreamSize                     : 970858408

Text #1
ID                                       : 3
Format                                   : UTF-8
Codec ID                                 : S_TEXT/UTF8
Codec ID/Info                            : UTF-8 Plain Text
Language                                 : English
Default                                  : No
Forced                                   : No
Statistics Tags Issue                    : no_variable_data 1970-01-01 00:00:00 / no_variable_data 2010-02-22 21:41:29
FromStats_BitRate                        : 38
FromStats_Duration                       : 01:21:23.294000000
FromStats_FrameCount                     : 797
FromStats_StreamSize                     : 23630

Text #2
ID                                       : 4
Format                                   : UTF-8
Codec ID                                 : S_TEXT/UTF8
Codec ID/Info                            : UTF-8 Plain Text
Title                                    : SDH
Language                                 : English
Default                                  : No
Forced                                   : No
Statistics Tags Issue                    : no_variable_data 1970-01-01 00:00:00 / no_variable_data 2010-02-22 21:41:29
FromStats_BitRate                        : 47
FromStats_Duration                       : 01:22:16.348000000
FromStats_FrameCount                     : 1222
FromStats_StreamSize                     : 29516

Menu
00:00:00.000                             : en:Chapter 01
00:08:08.071                             : en:Chapter 02
00:14:48.471                             : en:Chapter 03
00:23:48.636                             : en:Chapter 04
00:33:47.067                             : en:Chapter 05
00:42:18.327                             : en:Chapter 06
00:47:04.613                             : en:Chapter 07
00:53:26.745                             : en:Chapter 08
01:00:11.983                             : en:Chapter 09
01:07:04.854                             : en:Chapter 10
01:13:52.970                             : en:Chapter 11
01:21:58.330                             : en:Chapter 12





                                                                                                                                                                                                        
                                                                                                                                                                                                                                          
a7a25d6377e6fd5a4115c2509c77ccef.zip (33.54 KB)

回复

使用道具 举报

百度云电影论坛 ( 辽ICP备17019482号-3 )

本网站所有资源来自网络,如无意中侵犯了您的权益,请发邮件至 [email protected],立即清除相关链接

GMT+8, 2020-10-29 13:08 , Processed in 0.090734 second(s), 22 queries .

Powered by Discuz! X3.2

© 2001-2013 Comsenz Inc.

快速回复 返回顶部 返回列表