百度云电影论坛

 找回密码
 立即注册

暴力行为/暴力行径 Acts.of.Violence.2018.1080p.BluRay.x264-PSYCHD 6.55GB

[复制链接]

百度云电影 发表于 2020-10-17 09:27:05 | 显示全部楼层 |阅读模式

帖子完整标题:暴力行为/暴力行径 Acts.of.Violence.2018.1080p.BluRay.x264-PSYCHD 6.55GB





◎译  名 暴力行为 / 暴力行径 / 暴劫行動(台)
◎片  名 Acts of Violence
◎年  代 2018
◎产  地 加拿大
◎类  别 动作 / 犯罪
◎语  言 英语
◎上映日期 2018-01-12(美国)
◎IMDb评分  5.3/10 from 9471 users
◎片  长 86分钟
◎导  演 Brett Donowho
◎编  剧 Nicolas Aaron Mezzanatto
◎主  演 科尔·豪瑟 Cole Hauser
       布鲁斯·威利斯 Bruce Willis
       肖恩·阿什莫 Shawn Ashmore
       艾什顿·霍尔姆斯 Ashton Holmes
       梅丽莎·博洛纳 Melissa Bolona
       肖恩·布鲁斯南 Sean Brosnan
       索菲亚·布什 Sophia Bush
       迈克·艾普斯 Mike Epps
       蒂凡尼·布劳威尔 Tiffany Brouwer
       珍娜.B.凯利 Jenna B. Kelly
       帕特里克·圣埃斯普利特 Patrick St. Esprit
       博伊德·肯斯特纳 Boyd Kestner
       David Vegh


◎标  签 动作 | 犯罪 | 美国 | 布鲁斯·威利斯 | 暴力 | 2018 | 美国电影 | 剧情

◎简  介   

  布鲁斯·威利斯与EFO Films签订两部新片。一部是将于3月27日开拍的[暴力行为](Acts Of Violencen,暂译),该片由布莱特·多诺霍([银瀑])执导。
Video
ID                                       : 1
Format                                   : AVC
Format/Info                              : Advanced Video Codec
Format settings                          : CABAC / 5 Ref Frames
Format settings, CABAC                   : Yes
Format settings, Reference frames        : 5 frames
Codec ID                                 : V_MPEG4/ISO/AVC
Duration                                 : 1 h 32 min
Bit rate                                 : 8 640 kb/s
Width                                    : 1 920 pixels
Height                                   : 808 pixels
Display aspect ratio                     : 2.40:1
Frame rate mode                          : Constant
Frame rate                               : 23.976 (24000/1001/189150) FPS
Color space                              : YUV
Chroma subsampling                       : 4:2:0
Bit depth                                : 8 bits
Scan type                                : Progressive
Bits/(Pixel*Frame)                       : 0.232
Stream size                              : 5.44 GiB (83%)
Writing library                          : x264 core 155 r2901 7d0ff22
Encoding settings                        : cabac=1 / ref=5 / deblock=1:-3:-3 / analyse=0x3:0x113 / me=umh / subme=8 / psy=1 / psy_rd=1.00:0.00 / mixed_ref=1 / me_range=32 / chroma_me=1 / trellis=1 / 8x8dct=1 / cqm=0 / deadzone=21,11 / fast_pskip=1 / chroma_qp_offset=-2 / threads=24 / lookahead_threads=4 / sliced_threads=0 / nr=0 / decimate=1 / interlaced=0 / bluray_compat=0 / constrained_intra=0 / bframes=3 / b_pyramid=2 / b_adapt=2 / b_bias=0 / direct=3 / weightb=1 / open_gop=0 / weightp=2 / keyint=240 / keyint_min=24 / scenecut=40 / intra_refresh=0 / rc_lookahead=50 / rc=2pass / mbtree=1 / bitrate=8640 / ratetol=1.0 / qcomp=0.60 / qpmin=0 / qpmax=69 / qpstep=4 / cplxblur=20.0 / qblur=0.5 / ip_ratio=1.40 / aq=3:0.80
Default                                  : Yes
Forced                                   : No
Statistics Tags Issue                    : no_variable_data 1970-01-01 00:00:00 / no_variable_data 2010-02-22 21:41:29
FromStats_BitRate                        : 8622168
FromStats_Duration                       : 01:32:30.087000000
FromStats_FrameCount                     : 133069
FromStats_StreamSize                     : 5981723123

Audio
ID                                       : 2
Format                                   : DTS
Format/Info                              : Digital Theater Systems
Codec ID                                 : A_DTS
Duration                                 : 1 h 32 min
Bit rate mode                            : Constant
Bit rate                                 : 1 509 kb/s
Channel(s)                               : 6 channels
Channel layout                           : C L R Ls Rs LFE
Sampling rate                            : 48.0 kHz
Frame rate                               : 93.750 FPS (512 SPF)
Bit depth                                : 24 bits
Compression mode                         : Lossy
Stream size                              : 998 MiB (15%)
Language                                 : English
Default                                  : Yes
Forced                                   : No
Statistics Tags Issue                    : no_variable_data 1970-01-01 00:00:00 / no_variable_data 2010-02-22 21:41:29
FromStats_BitRate                        : 1508999
FromStats_Duration                       : 01:32:30.091000000
FromStats_FrameCount                     : 520321
FromStats_StreamSize                     : 1046885852

Menu
00:00:00.000                             : en:00:00:00.000
00:05:20.695                             : en:00:05:20.695
00:10:26.292                             : en:00:10:26.292
00:16:24.442                             : en:00:16:24.442
00:22:07.159                             : en:00:22:07.159
00:27:41.243                             : en:00:27:41.243
00:33:54.407                             : en:00:33:54.407
00:38:53.748                             : en:00:38:53.748
00:44:17.321                             : en:00:44:17.321
00:51:44.143                             : en:00:51:44.143
00:55:59.022                             : en:00:55:59.022
00:58:48.442                             : en:00:58:48.442
01:02:14.147                             : en:01:02:14.147
01:07:48.523                             : en:01:07:48.523
01:12:07.323                             : en:01:12:07.323
01:26:32.771                             : en:01:26:32.771







8aabaaeba1287e7bdca371435633be73.zip (131.66 KB)

回复

使用道具 举报

百度云电影论坛 ( 辽ICP备17019482号-3 )

本网站所有资源来自网络,如无意中侵犯了您的权益,请发邮件至 [email protected],立即清除相关链接

GMT+8, 2020-10-29 12:59 , Processed in 0.096648 second(s), 22 queries .

Powered by Discuz! X3.2

© 2001-2013 Comsenz Inc.

快速回复 返回顶部 返回列表