百度云电影论坛

 找回密码
 立即注册

谎话连篇 We.Make.Antiques.2018.JAPANESE.1080p.BluRay.x264.DD5.1-CHD 9.20GB

[复制链接]

百度云电影 发表于 2020-10-17 09:27:02 | 显示全部楼层 |阅读模式
帖子完整标题:谎话连篇 We.Make.Antiques.2018.JAPANESE.1080p.BluRay.x264.DD5.1-CHD 9.20GB





◎译  名 谎话连篇 / We Make Antiques / 幕後古玩家(港)
◎片  名 嘘八百
◎年  代 2018
◎产  地 日本
◎类  别 喜剧
◎语  言 日语
◎上映日期 2018-01-05(日本)
◎IMDb评分  6.1/10 from 119 users
◎片  长 105分钟
◎导  演 武正晴 Masaharu Take
◎编  剧 足立绅 Shin Adachi / 今井雅子 Masako Imai
◎主  演 中井贵一 Kiichi Nakai
       佐佐木藏之介 Kuranosuke Sasaki
       友近 Tomochika
       森川葵 Aoi Morikawa
       前野朋哉 Tomoya Maeno
       堀内敬子 Keiko Horiuchi
       木下邦家 Houka Kinoshita
       塚地武雅 Muga Tsukaji
       寺田农 Minori Terada
       芦屋小雁 Kogan Ashiya
       近藤正臣 Masaomi Kondo


◎标  签 日本 | 喜剧 | 2018 | 中井贵一 | 佐佐木藏之介 | 剧情 | 森川葵 | 武正晴

◎简  介   

  阳光明媚的大阪府堺市,在业内名声不佳的古董商人小池则夫(中井贵一 饰)带着女儿真里(森川葵 饰)驱车穿梭在大街小巷之中。他按照命运的指点找到一户人家,与主人洽谈家藏古董的收购事宜。在一堆仿制品中,小池意外发现茶道大家千利休死前赠与他人并且在史册中没有任何记录的梦幻珍品。小池喜出望外,同时按捺激动的情绪,准备捡漏,却没曾想落入了穷困潦倒的陶艺师野田佐辅(佐佐木藏之介 饰)设下的古董局。正所谓不打不相识,这两个命运有着些许相似的男人一拍即合,决定联手杜撰利休的绝命珍品大赚一笔。
  他们不仅要施展自己的才华,更要向混迹古董界的蝇营狗苟之徒发起挑战……
Video
ID                                       : 1
Format                                   : AVC
Format/Info                              : Advanced Video Codec
Format settings                          : CABAC / 4 Ref Frames
Format settings, CABAC                   : Yes
Format settings, Reference frames        : 4 frames
Codec ID                                 : V_MPEG4/ISO/AVC
Duration                                 : 1 h 45 min
Bit rate                                 : 11.8 Mb/s
Width                                    : 1 920 pixels
Height                                   : 1 038 pixels
Display aspect ratio                     : 1.85:1
Frame rate mode                          : Constant
Frame rate                               : 23.976 (24000/1001/189150) FPS
Color space                              : YUV
Chroma subsampling                       : 4:2:0
Bit depth                                : 8 bits
Scan type                                : Progressive
Bits/(Pixel*Frame)                       : 0.248
Stream size                              : 8.73 GiB (95%)
Writing library                          : x264 core 157 r2867+150 7e91e0e t_mod_Custom_2
Encoding settings                        : cabac=1 / ref=4 / deblock=1:-3:-3 / analyse=0x3:0x133 / me=umh / subme=11 / psy=1 / fade_compensate=0.00 / psy_rd=0.90:0.10 / mixed_ref=1 / me_range=64 / chroma_me=1 / trellis=2 / 8x8dct=1 / cqm=0 / deadzone=21,11 / fast_pskip=0 / chroma_qp_offset=-4 / threads=32 / lookahead_threads=5 / sliced_threads=0 / nr=0 / decimate=1 / interlaced=0 / bluray_compat=0 / constrained_intra=0 / fgo=0 / bframes=8 / b_pyramid=2 / b_adapt=2 / b_bias=0 / direct=3 / weightb=1 / open_gop=0 / weightp=2 / keyint=250 / keyint_min=23 / scenecut=40 / intra_refresh=0 / rc_lookahead=60 / rc=crf / mbtree=0 / crf=18.0000 / qcomp=0.70 / qpmin=0:0:0 / qpmax=69:69:69 / qpstep=4 / vbv_maxrate=35000 / vbv_bufsize=35000 / crf_max=0.0 / nal_hrd=none / filler=0 / ip_ratio=1.40 / pb_ratio=1.30 / aq=3:1.00 / aq-sensitivity=10.00 / aq-factor=1.00:1.00:1.00 / aq2=0 / aq3=0
Language                                 : Japanese
Default                                  : Yes
Forced                                   : No

Audio
ID                                       : 2
Format                                   : AC-3
Format/Info                              : Audio Coding 3
Commercial name                          : Dolby Digital
Codec ID                                 : A_AC3
Duration                                 : 1 h 45 min
Bit rate mode                            : Constant
Bit rate                                 : 640 kb/s
Channel(s)                               : 6 channels
Channel layout                           : L R C LFE Ls Rs
Sampling rate                            : 48.0 kHz
Frame rate                               : 31.250 FPS (1536 SPF)
Bit depth                                : 16 bits
Compression mode                         : Lossy
Stream size                              : 483 MiB (5%)
Language                                 : Japanese
Service kind                             : Complete Main
Default                                  : No
Forced                                   : No

Text
ID                                       : 3
Format                                   : UTF-8
Codec ID                                 : S_TEXT/UTF8
Codec ID/Info                            : UTF-8 Plain Text
Duration                                 : 1 h 44 min
Bit rate                                 : 40 b/s
Count of elements                        : 1290
Stream size                              : 31.4 KiB (0%)
Language                                 : English
Default                                  : Yes
Forced                                   : No

Menu
00:00:00.000                             : en:绗?01 绔?
00:05:29.120                             : en:绗?02 绔?
00:15:16.916                             : en:绗?03 绔?
00:22:37.189                             : en:绗?04 绔?
00:29:35.983                             : en:绗?05 绔?
00:35:27.751                             : en:绗?06 绔?
00:44:07.854                             : en:绗?07 绔?
00:48:09.345                             : en:绗?08 绔?
00:53:02.012                             : en:绗?09 绔?
01:01:46.745                             : en:绗?10 绔?
01:08:36.279                             : en:绗?11 绔?
01:12:57.665                             : en:绗?12 绔?
01:23:54.655                             : en:绗?13 绔?
01:30:25.086                             : en:绗?14 绔?
01:35:46.574                             : en:绗?15 绔?
01:41:11.065                             : en:绗?16 绔?





        
37f2607d88e61bb1bf8580044cdba34f.zip (46.67 KB)

回复

使用道具 举报

百度云电影论坛 ( 辽ICP备17019482号-3 )

本网站所有资源来自网络,如无意中侵犯了您的权益,请发邮件至 [email protected],立即清除相关链接

GMT+8, 2020-10-26 15:05 , Processed in 0.100708 second(s), 22 queries .

Powered by Discuz! X3.2

© 2001-2013 Comsenz Inc.

快速回复 返回顶部 返回列表