百度云电影论坛

 找回密码
 立即注册

搏击之王:反击 Kickboxer.Retaliation.2018.1080p.BluRay.x264-PSYCHD 7.95GB

[复制链接]

百度云电影 发表于 2020-10-17 09:26:58 | 显示全部楼层 |阅读模式

帖子完整标题:搏击之王:反击 Kickboxer.Retaliation.2018.1080p.BluRay.x264-PSYCHD 7.95GB





◎译  名 搏击之王:反击
◎片  名 Kickboxer Retaliation
◎年  代 2018
◎产  地 美国
◎类  别 剧情 / 动作
◎语  言 英语
◎上映日期 2018-01-26(美国)
◎片  长 110分钟
◎导  演 迪米特里·洛戈塞蒂斯 Dimitri Logothetis
◎编  剧 迪米特里·洛戈塞蒂斯 Dimitri Logothetis / 吉姆·麦格拉思 Jim McGrath
◎主  演 阿兰·莫西 Alain Moussi
       克里斯多弗·兰伯特 Christopher Lambert
       尚格·云顿 Jean-Claude Van Damme
       迈克·泰森 Mike Tyson
       莎拉·玛卢库·莱恩 Sara Malakul Lane
       哈弗波·朱利尔斯·比昂森 Haftór Júlíus Bj?rnsson
       山姆·麦地那 Sam Medina
       史蒂文·斯沃德林 Steven Swadling
       迈尔斯·斯托曼 Miles Strommen
       湛琪清 Jessica Jann
       马克西姆·萨瓦瑞亚 Maxime Savaria
       万德雷·席尔瓦 Wanderlei Silva
       弗兰克·埃德加 Frank Edgar
       伦佐·格雷西 Renzo Gracie
       雷纳托·索布拉尔 Renato Sobral
       墨里西欧·鲁阿 Mauricio Rua
       杰姆斯·班尼特 James P. Bennett
       罗纳尔迪尼奥 Ronaldinho Gaúcho


◎标  签 搏击 | 动作 | 格斗 | 美国 | 肌肉男 | 2018 | 暴力 | 犯罪

◎简  介   

  前世界拳王迈克·泰森、《权力的游戏》中魔山的扮演者哈弗波·朱利尔斯·比昂森加盟《搏击之王:反击》(Kickboxer: Retaliation,暂译)。该片是新版《搏击之王》的续集,故事依旧围绕首部中为兄弟复仇的搏击手展开。首部制片兼编剧迪米特里·罗格特蒂斯将执导续集,主演阿兰·莫西回归。
Video
ID                                       : 1
Format                                   : AVC
Format/Info                              : Advanced Video Codec
Format settings                          : CABAC / 5 Ref Frames
Format settings, CABAC                   : Yes
Format settings, Reference frames        : 5 frames
Codec ID                                 : V_MPEG4/ISO/AVC
Duration                                 : 1 h 50 min
Bit rate                                 : 8 788 kb/s
Width                                    : 1 920 pixels
Height                                   : 808 pixels
Display aspect ratio                     : 2.40:1
Frame rate mode                          : Constant
Frame rate                               : 23.976 (24000/1001/189150) FPS
Color space                              : YUV
Chroma subsampling                       : 4:2:0
Bit depth                                : 8 bits
Scan type                                : Progressive
Bits/(Pixel*Frame)                       : 0.236
Stream size                              : 6.62 GiB (83%)
Writing library                          : x264 core 155 r2901 7d0ff22
Encoding settings                        : cabac=1 / ref=5 / deblock=1:-3:-3 / analyse=0x3:0x113 / me=umh / subme=8 / psy=1 / psy_rd=1.00:0.00 / mixed_ref=1 / me_range=32 / chroma_me=1 / trellis=1 / 8x8dct=1 / cqm=0 / deadzone=21,11 / fast_pskip=1 / chroma_qp_offset=-2 / threads=24 / lookahead_threads=4 / sliced_threads=0 / nr=0 / decimate=1 / interlaced=0 / bluray_compat=0 / constrained_intra=0 / bframes=3 / b_pyramid=2 / b_adapt=2 / b_bias=0 / direct=3 / weightb=1 / open_gop=0 / weightp=2 / keyint=240 / keyint_min=24 / scenecut=40 / intra_refresh=0 / rc_lookahead=50 / rc=2pass / mbtree=1 / bitrate=8788 / ratetol=1.0 / qcomp=0.60 / qpmin=0 / qpmax=69 / qpstep=4 / cplxblur=20.0 / qblur=0.5 / ip_ratio=1.40 / aq=3:0.80
Default                                  : Yes
Forced                                   : No
Statistics Tags Issue                    : no_variable_data 1970-01-01 00:00:00 / no_variable_data 2010-02-22 21:41:29
FromStats_BitRate                        : 8785038
FromStats_Duration                       : 01:50:25.703000000
FromStats_FrameCount                     : 158858
FromStats_StreamSize                     : 7275881923

Audio
ID                                       : 2
Format                                   : DTS
Format/Info                              : Digital Theater Systems
Codec ID                                 : A_DTS
Duration                                 : 1 h 50 min
Bit rate mode                            : Constant
Bit rate                                 : 1 509 kb/s
Channel(s)                               : 6 channels
Channel layout                           : C L R Ls Rs LFE
Sampling rate                            : 48.0 kHz
Frame rate                               : 93.750 FPS (512 SPF)
Bit depth                                : 24 bits
Compression mode                         : Lossy
Stream size                              : 1.16 GiB (15%)
Language                                 : English
Default                                  : Yes
Forced                                   : No
Statistics Tags Issue                    : no_variable_data 1970-01-01 00:00:00 / no_variable_data 2010-02-22 21:41:29
FromStats_BitRate                        : 1508999
FromStats_Duration                       : 01:50:25.707000000
FromStats_FrameCount                     : 621160
FromStats_StreamSize                     : 1249773920

Text #1
ID                                       : 3
Format                                   : UTF-8
Codec ID                                 : S_TEXT/UTF8
Codec ID/Info                            : UTF-8 Plain Text
Language                                 : English
Default                                  : No
Forced                                   : No
Statistics Tags Issue                    : no_variable_data 1970-01-01 00:00:00 / no_variable_data 2010-02-22 21:41:29
FromStats_BitRate                        : 24
FromStats_Duration                       : 01:41:37.216000000
FromStats_FrameCount                     : 719
FromStats_StreamSize                     : 18390

Text #2
ID                                       : 4
Format                                   : UTF-8
Codec ID                                 : S_TEXT/UTF8
Codec ID/Info                            : UTF-8 Plain Text
Title                                    : SDH
Language                                 : English
Default                                  : No
Forced                                   : No
Statistics Tags Issue                    : no_variable_data 1970-01-01 00:00:00 / no_variable_data 2010-02-22 21:41:29
FromStats_BitRate                        : 24
FromStats_Duration                       : 01:41:37.216000000
FromStats_FrameCount                     : 727
FromStats_StreamSize                     : 18612

Menu
00:00:00.000                             : en:00:00:00.000
00:10:06.899                             : en:00:10:06.899
00:16:29.865                             : en:00:16:29.865
00:24:00.315                             : en:00:24:00.315
00:33:30.385                             : en:00:33:30.385
00:40:08.991                             : en:00:40:08.991
00:47:53.247                             : en:00:47:53.247
00:58:59.537                             : en:00:58:59.537
01:05:05.987                             : en:01:05:05.987
01:15:44.750                             : en:01:15:44.750
01:26:30.603                             : en:01:26:30.603
01:45:54.891                             : en:01:45:54.891





                    
92271eef47730f05a31b4b9dfea4b474.zip (80.21 KB)

回复

使用道具 举报

百度云电影论坛 ( 辽ICP备17019482号-3 )

本网站所有资源来自网络,如无意中侵犯了您的权益,请发邮件至 [email protected],立即清除相关链接

GMT+8, 2020-10-29 12:42 , Processed in 0.092118 second(s), 22 queries .

Powered by Discuz! X3.2

© 2001-2013 Comsenz Inc.

快速回复 返回顶部 返回列表