百度云电影论坛

 找回密码
 立即注册

残忍的心 Cruel.Hearts.2018.1080p.BluRay.x264.DTS-CHD 8.82GB

[复制链接]

百度云电影 发表于 2020-10-17 09:26:49 | 显示全部楼层 |阅读模式

帖子完整标题:残忍的心 Cruel.Hearts.2018.1080p.BluRay.x264.DTS-CHD 8.82GB





◎译  名 残忍的心
◎片  名 Cruel Hearts
◎年  代 2018
◎产  地 美国
◎类  别 惊悚
◎语  言 英语
◎上映日期 2018-11-10(劳德代尔堡国际电影节)
◎IMDb评分  5.0/10 from 121 users
◎片  长 86分钟
◎导  演 Paul Osborne
◎编  剧 Paul Osborne
◎主  演 梅罗拉·哈丁 Melora Hardin
       埃迪·杰米森 Eddie Jemison
       邦尼·鲁特 Bonnie Root
       Alev Aydin
       Sean Russel Herman
       Dawn Brodey
       Marion Kerr
       Melanie Starks
       Jack Gogreve
       Lucie Beeby


◎标  签 黑色幽默 | 犯罪 | 悬疑 | 惊悚 | 美国 | 邦尼·鲁特 | 美国电影 | 电影

◎简  介   

  一个年轻屌丝盖伊跟一个女人上床,事后才发现这个女人已经结婚了,而且嫁给了臭名昭著的黑老大沃克,盖伊担心沃克会在某一时刻发现他的婚外情并杀了他,于是他主动向沃克承认错误,并祈求原谅...
Video
ID                                       : 1
Format                                   : AVC
Format/Info                              : Advanced Video Codec
Format settings                          : CABAC / 4 Ref Frames
Format settings, CABAC                   : Yes
Format settings, Reference frames        : 4 frames
Codec ID                                 : V_MPEG4/ISO/AVC
Duration                                 : 1 h 26 min
Bit rate                                 : 13.0 Mb/s
Width                                    : 1 920 pixels
Height                                   : 1 080 pixels
Display aspect ratio                     : 16:9
Frame rate mode                          : Constant
Frame rate                               : 23.976 (24000/1001/189150) FPS
Color space                              : YUV
Chroma subsampling                       : 4:2:0
Bit depth                                : 8 bits
Scan type                                : Progressive
Bits/(Pixel*Frame)                       : 0.262
Stream size                              : 7.90 GiB (90%)
Writing library                          : x264 core 157 r2867+150 7e91e0e t_mod_Custom_2
Encoding settings                        : cabac=1 / ref=4 / deblock=1:-3:-3 / analyse=0x3:0x133 / me=umh / subme=11 / psy=1 / fade_compensate=0.00 / psy_rd=0.90:0.10 / mixed_ref=1 / me_range=64 / chroma_me=1 / trellis=2 / 8x8dct=1 / cqm=0 / deadzone=21,11 / fast_pskip=0 / chroma_qp_offset=-4 / threads=34 / lookahead_threads=5 / sliced_threads=0 / nr=0 / decimate=1 / interlaced=0 / bluray_compat=0 / constrained_intra=0 / fgo=0 / bframes=8 / b_pyramid=2 / b_adapt=2 / b_bias=0 / direct=3 / weightb=1 / open_gop=0 / weightp=2 / keyint=250 / keyint_min=23 / scenecut=40 / intra_refresh=0 / rc_lookahead=60 / rc=crf / mbtree=0 / crf=17.0000 / qcomp=0.70 / qpmin=0:0:0 / qpmax=69:69:69 / qpstep=4 / vbv_maxrate=35000 / vbv_bufsize=35000 / crf_max=0.0 / nal_hrd=none / filler=0 / ip_ratio=1.40 / pb_ratio=1.30 / aq=3:1.00 / aq-sensitivity=10.00 / aq-factor=1.00:1.00:1.00 / aq2=0 / aq3=0
Language                                 : English
Default                                  : Yes
Forced                                   : No

Audio
ID                                       : 2
Format                                   : DTS
Format/Info                              : Digital Theater Systems
Codec ID                                 : A_DTS
Duration                                 : 1 h 26 min
Bit rate mode                            : Constant
Bit rate                                 : 1 509 kb/s
Channel(s)                               : 6 channels
Channel layout                           : C L R Ls Rs LFE
Sampling rate                            : 48.0 kHz
Frame rate                               : 93.750 FPS (512 SPF)
Bit depth                                : 24 bits
Compression mode                         : Lossy
Stream size                              : 936 MiB (10%)
Language                                 : English
Default                                  : Yes
Forced                                   : No

Text
ID                                       : 3
Format                                   : UTF-8
Codec ID                                 : S_TEXT/UTF8
Codec ID/Info                            : UTF-8 Plain Text
Duration                                 : 1 h 24 min
Bit rate                                 : 68 b/s
Count of elements                        : 1196
Stream size                              : 42.9 KiB (0%)
Language                                 : English
Default                                  : Yes
Forced                                   : No





                                                                                                                                                                                                        



3ba561a2a77d952be44c8db7dbda350f.zip (44.73 KB)

回复

使用道具 举报

百度云电影论坛 ( 辽ICP备17019482号-3 )

本网站所有资源来自网络,如无意中侵犯了您的权益,请发邮件至 [email protected],立即清除相关链接

GMT+8, 2020-10-29 12:15 , Processed in 0.089864 second(s), 22 queries .

Powered by Discuz! X3.2

© 2001-2013 Comsenz Inc.

快速回复 返回顶部 返回列表