百度云电影论坛

 找回密码
 立即注册

入鐵籠 We.Are.Legends.2019.CHINESE.1080p.BluRay.x264.DD5.1-CHD 9.59GB

[复制链接]

百度云电影 发表于 2020-10-17 09:26:46 | 显示全部楼层 |阅读模式

帖子完整标题:入鐵籠 We.Are.Legends.2019.CHINESE.1080p.BluRay.x264.DD5.1-CHD 9.59GB





◎译  名 入铁笼 / We Are Legends / 格斗吧
◎片  名 入鐵籠
◎年  代 2019
◎产  地 中国香港
◎类  别 动作
◎语  言 粤语
◎上映日期 2019-03-19(中国大陆) / 2019-03-21(中国香港)
◎片  长 108分钟
◎导  演 陈翊恒 Daniel Chan Yee-Heng
◎编  剧 陈翊恒 Daniel Chan Yee-Heng / 梁鸿华 Tony Leung Hung-Wah / 庸材 / 蔡素文 Tsoi So Man
◎主  演 林耀声 Yiu-Sing Lam
       马志威 Edward Ma
       元秋 Qiu Yuen
       葛民辉 Eric Kot
       黎美言 Winkie Lai
       杨柳青 Wiyona Yeung
       周殷廷 Yan Ting
       林曉雯
       张沛乐 Charlotte Cheung
       郑丽莎 Lisa Cheng
       李宗彥 Jason Li
       罗天池 Eddie Law Tin Chi
       李逸朗 Yat-long Li
       梁雍婷 Rachel Leung
       麦以马 Mak Yee Ma


◎标  签 动作 | 香港 | 2019 | 体育 | 香港电影 | 港片 | 励志 | 青春

◎简  介   

  哥哥『招積』和弟弟『電兔』在孤兒院長大,經院工『雷Sir』領養並得到『雷師母』的幫忙,入住鄉村拳館。招積供養著弟弟到學校讀書,但電兔打地下拳賺錢,被開除學籍,兩兄弟因而反目。電兔成為網絡紅人。他極速KO對手的片段被網友封為『爛仔交王』。招積每天勤練拳並參加各大小型比賽,打出59場不敗記錄!招積首場MMA職業拳賽,竟然被20秒KO,及後對手陳樂風在台上更侮辱雷師母和鄉村拳館。 及後,網絡卻瘋傳『爛仔交王』電兔為了哥哥挑戰『萬人迷』陳樂風的片段。兩兄弟回想起當年在孤兒院的日子,忍不住流下淚來。哥哥說電兔有一個罕有的天賦,就是判斷對手拳法的能力,讓他能夠輕易閃避對手拳腳。"Precision beats Power, Timing beats Speed".自己卻一直隱瞞著,是怕有一天弟弟會打贏自己,電兔信心倍增……
Video
ID                                       : 1
Format                                   : AVC
Format/Info                              : Advanced Video Codec
Format settings                          : CABAC / 4 Ref Frames
Format settings, CABAC                   : Yes
Format settings, Reference frames        : 4 frames
Codec ID                                 : V_MPEG4/ISO/AVC
Duration                                 : 1 h 48 min
Bit rate                                 : 12.0 Mb/s
Width                                    : 1 920 pixels
Height                                   : 804 pixels
Display aspect ratio                     : 2.40:1
Frame rate mode                          : Constant
Frame rate                               : 24.000 FPS
Color space                              : YUV
Chroma subsampling                       : 4:2:0
Bit depth                                : 8 bits
Scan type                                : Progressive
Bits/(Pixel*Frame)                       : 0.324
Stream size                              : 9.10 GiB (95%)
Writing library                          : x264 core 157 r2867+150 7e91e0e t_mod_Custom_2
Encoding settings                        : cabac=1 / ref=4 / deblock=1:-3:-3 / analyse=0x3:0x133 / me=umh / subme=11 / psy=1 / fade_compensate=0.00 / psy_rd=0.90:0.10 / mixed_ref=1 / me_range=64 / chroma_me=1 / trellis=2 / 8x8dct=1 / cqm=0 / deadzone=21,11 / fast_pskip=0 / chroma_qp_offset=-4 / threads=25 / lookahead_threads=4 / sliced_threads=0 / nr=0 / decimate=1 / interlaced=0 / bluray_compat=0 / constrained_intra=0 / fgo=0 / bframes=8 / b_pyramid=2 / b_adapt=2 / b_bias=0 / direct=3 / weightb=1 / open_gop=0 / weightp=2 / keyint=250 / keyint_min=24 / scenecut=40 / intra_refresh=0 / rc_lookahead=60 / rc=crf / mbtree=0 / crf=18.0000 / qcomp=0.70 / qpmin=0:0:0 / qpmax=69:69:69 / qpstep=4 / vbv_maxrate=35000 / vbv_bufsize=35000 / crf_max=0.0 / nal_hrd=none / filler=0 / ip_ratio=1.40 / pb_ratio=1.30 / aq=3:1.00 / aq-sensitivity=10.00 / aq-factor=1.00:1.00:1.00 / aq2=0 / aq3=0
Language                                 : Chinese
Default                                  : Yes
Forced                                   : No

Audio
ID                                       : 2
Format                                   : AC-3
Format/Info                              : Audio Coding 3
Commercial name                          : Dolby Digital
Codec ID                                 : A_AC3
Duration                                 : 1 h 48 min
Bit rate mode                            : Constant
Bit rate                                 : 640 kb/s
Channel(s)                               : 6 channels
Channel layout                           : L R C LFE Ls Rs
Sampling rate                            : 48.0 kHz
Frame rate                               : 31.250 FPS (1536 SPF)
Bit depth                                : 16 bits
Compression mode                         : Lossy
Stream size                              : 497 MiB (5%)
Language                                 : Chinese
Service kind                             : Complete Main
Default                                  : No
Forced                                   : No

Text
ID                                       : 3
Format                                   : UTF-8
Codec ID                                 : S_TEXT/UTF8
Codec ID/Info                            : UTF-8 Plain Text
Duration                                 : 1 h 45 min
Bit rate                                 : 49 b/s
Count of elements                        : 1577
Stream size                              : 38.3 KiB (0%)
Language                                 : English
Default                                  : Yes
Forced                                   : No

Menu
00:00:00.000                             : en:绗?01 绔?
00:07:24.208                             : en:绗?02 绔?
00:18:30.667                             : en:绗?03 绔?
00:26:20.125                             : en:绗?04 绔?
00:38:18.125                             : en:绗?05 绔?
00:44:46.250                             : en:绗?06 绔?
00:54:44.500                             : en:绗?07 绔?
01:01:47.000                             : en:绗?08 绔?
01:12:40.833                             : en:绗?09 绔?
01:20:12.292                             : en:绗?10 绔?
01:29:07.667                             : en:绗?11 绔?
01:38:23.958                             : en:绗?12 绔?







c828f1d92e3c1b8bffd4aa37f0621194.zip (48.61 KB)

回复

使用道具 举报

百度云电影论坛 ( 辽ICP备17019482号-3 )

本网站所有资源来自网络,如无意中侵犯了您的权益,请发邮件至 [email protected],立即清除相关链接

GMT+8, 2020-10-26 14:25 , Processed in 0.116594 second(s), 22 queries .

Powered by Discuz! X3.2

© 2001-2013 Comsenz Inc.

快速回复 返回顶部 返回列表